Главный (Юрий Кара) [2015, Россия, история, драма, WEB-DL 1080p]

 
Автор Сообщение

TorrentFilm ®

Пол:

Стаж: 2 года

Сообщений: 7741



Награды: Нет

Торрент-статистика

Создавать темы 31-Мар-2016 00:08

[Цитировать]

-Главный -Страна: Россия
Студия: Киностудия «Мастер»
Жанр: история, драма
Год выпуска: 2015
Продолжительность: 01:45:45-Перевод: Не требуется
Cубтитры: нет
Оригинальная аудиодорожка: русский-Режиссер: Юрий Кара-В ролях: Валерий Гришко, Борис Щербаков, Лидия Арефьева, Алексей Богачук, Федор Лавров, Георгий Солдатов, Борис Каморзин, Анатолий Котенёв, Вадим Андреев, Александр Кузнецов-Описание: Все знают, что Сергей Королев запустил в космос и Первый искусственный спутник Земли, и Лайку, и Гагарина, и вывел в открытый космос Алексея Леонова. Но никто не знает, насколько ему было трудно преодолеть и косность партийного руководства, и недоверие коллег. Но, как сказал один из его соратников, что у Королева все получалось потому, что ему верили и знали, что он знает, куда надо идти.- -Тип релиза: WEB-DL 1080p
Контейнер: MKV
Видео: 1920x1080 (16:9), 25.000 fps, AVC MPEG-4 (H264), 5252 Кbps avg, 0.101 bit/pixell
Аудио: 48 kHz, AC3 Dolby Digital, 3/2 (L,C,R,l,r) + LFE ch, ~384.00 kbps avg-

MediaInfo

General
Unique ID : 251937099998896763448059103944657822531 (0xBD89520C38E0D00FBADEFCE1A0076343)
Complete name : D:\Фильмы\GLAVNYJ.2015.WEB-DL.1080p.mkv
Format : Matroska
Format version : Version 4 / Version 2
File size : 4.16 GiB
Duration : 1h 45mn
Overall bit rate : 5 637 Kbps
Movie name : GLAVNYJ_WEB_DL_1080p-BLUEBIRD
Encoded date : UTC 2016-02-20 19:34:11
Writing application : mkvmerge v7.1.0 ('Good Love') 64bit built on Jul 27 2014 13:06:55
Writing library : libebml v1.3.0 + libmatroska v1.4.1
Video
ID : 1
Format : AVC
Format/Info : Advanced Video Codec
Format profile : High@L4
Format settings, CABAC : Yes
Format settings, ReFrames : 4 frames
Codec ID : V_MPEG4/ISO/AVC
Duration : 1h 45mn
Bit rate : 5 252 Kbps
Width : 1 920 pixels
Height : 1 080 pixels
Display aspect ratio : 16:9
Frame rate mode : Constant
Frame rate : 25.000 fps
Color space : YUV
Chroma subsampling : 4:2:0
Bit depth : 8 bits
Scan type : Progressive
Bits/(Pixel*Frame) : 0.101
Stream size : 3.88 GiB (93%)
Title : GLAVNYJ_WEB_DL_1080p-BLUEBIRD
Language : Russian
Default : Yes
Forced : No
Color range : Limited
Color primaries : BT.709
Transfer characteristics : BT.709
Matrix coefficients : BT.709
Audio
ID : 2
Format : AC-3
Format/Info : Audio Coding 3
Mode extension : CM (complete main)
Format settings, Endianness : Big
Codec ID : A_AC3
Duration : 1h 45mn
Bit rate mode : Constant
Bit rate : 384 Kbps
Channel(s) : 6 channels
Channel positions : Front: L C R, Side: L R, LFE
Sampling rate : 48.0 KHz
Frame rate : 31.250 fps (1536 spf)
Compression mode : Lossy
Stream size : 290 MiB (7%)
Title : [ORIGINAL] DD 5.1 @ 384 kbps
Language : Russian
Default : Yes
Forced : No
Menu
00:00:00.000 : en:Глава 1
00:05:24.280 : en:Глава 2
00:12:39.720 : en:Глава 3
00:17:58.600 : en:Глава 4
00:24:22.720 : en:Глава 5
00:31:16.600 : en:Глава 6
00:36:24.200 : en:Глава 7
00:41:11.400 : en:Глава 8
00:48:53.440 : en:Глава 9
00:55:32.640 : en:Глава 10
01:02:05.320 : en:Глава 11
01:06:26.360 : en:Глава 12
01:16:56.080 : en:Глава 13
01:24:03.760 : en:Глава 14
01:38:04.640 : en:Глава 15

-

Скриншоты




-
[Профиль] [ЛС]
Показать сообщения:    

Текущее время: Сегодня 02:30

Часовой пояс: GMT



Вы не можете начинать темы
Вы не можете отвечать на сообщения
Вы не можете редактировать свои сообщения
Вы не можете удалять свои сообщения
Вы не можете голосовать в опросах
Вы не можете прикреплять файлы к сообщениям
Вы не можете скачивать файлы