Главный (2015) WEB-DLRip-AVC | iTunes

 
Автор Сообщение

достали все ®

Пол:

Стаж: 1 год 8 месяцев

Сообщений: 6515



Награды: 12 (Подробнее)

Top Releaser 3 (Количество: 1) За внесенный вклад в развитие сайта (Количество: 1) Mega Seeder 5 (Количество: 1)
Торрент-статистика

Создавать темы 22-Фев-2016 05:42

[Цитировать]

Информация о фильме
Название: Главный
Год выпуска: 2015
Страна: Россия
Жанр: история, драма-Перевод: Оригинальный [iTunes]
Продолжительность: 01:45:45-Режиссер: Юрий Кара
В ролях: Валерий Гришко (Сергей Королев), Борис Щербаков (Валентин Глушко), Лидия Арефьева (Нина Ивановна), Алексей Богачук (Юрий Гагарин), Федор Лавров (Алексей Леонов), Георгий Солдатов (Феоктистов), Борис Каморзин (Хрущев), Анатолий Котенёв (Брежнев), Вадим Андреев (Сталин), Александр Кузнецов (Устинов), Сергей Никоненко (Борис Бещев), Юрий Назаров (Василий Вознюк)-Описание:
Все знают, что Сергей Королев запустил в космос и Первый искусственный спутник Земли, и Лайку, и Гагарина, и вывел в открытый космос Алексея Леонова. Но никто не знает, насколько ему было трудно преодолеть и косность партийного руководства, и недоверие коллег. Но, как сказал один из его соратников, что у Королева все получалось потому, что ему верили и знали, что он знает, куда надо идти.-Рейтинг:
-Качество: WEB-DLRip-AVC
Формат: MKV
Видео: AVC, 1024x576 (16:9), 1590 kbps, 25 fps, 0,108 bpp
Аудио: русский / AC3 / 5.1 / 48 kHz / 384 kbps / 16 bit-Релиз от: by schultz

ОтчетМедиаИнфо

General
Unique ID : 180597110171090427585232197921854144947 (0x87DDBCFCF535345BAA6C5CCE841741B3)
Complete name : D:downloadGLAVNYJ.2015.WEB-DLRip-AVC by schultz R.G.Resident.mkv
Format : Matroska
Format version : Version 2
File size : 1.46 GiB
Duration : 1h 45mn
Overall bit rate : 1 976 Kbps
Encoded date : UTC 2016-02-21 20:06:45
Writing application : mkvmerge v7.8.0 ('River Man') 32bit built on Apr 3 2015 12:11:22
Writing library : libebml v1.3.1 + libmatroska v1.4.2
Video
ID : 1
Format : AVC
Format/Info : Advanced Video Codec
Format profile : High@L4.1
Format settings, CABAC : Yes
Format settings, ReFrames : 12 frames
Codec ID : V_MPEG4/ISO/AVC
Duration : 1h 45mn
Bit rate : 1 590 Kbps
Width : 1 024 pixels
Height : 576 pixels
Display aspect ratio : 16:9
Frame rate : 25.000 fps
Color space : YUV
Chroma subsampling : 4:2:0
Bit depth : 8 bits
Scan type : Progressive
Bits/(Pixel*Frame) : 0.108
Stream size : 1.15 GiB (79%)
Writing library : x264 core 146 r2538 121396c
Encoding settings : cabac=1 / ref=12 / deblock=1:-3:-3 / analyse=0x3:0x113 / me=umh / subme=11 / psy=1 / psy_rd=1.00:0.00 / mixed_ref=1 / me_range=48 / chroma_me=1 / trellis=2 / 8x8dct=1 / cqm=0 / deadzone=21,11 / fast_pskip=0 / chroma_qp_offset=-2 / threads=12 / lookahead_threads=3 / sliced_threads=0 / nr=0 / decimate=1 / interlaced=0 / bluray_compat=0 / constrained_intra=0 / bframes=13 / b_pyramid=2 / b_adapt=2 / b_bias=0 / direct=3 / weightb=1 / open_gop=0 / weightp=2 / keyint=250 / keyint_min=24 / scenecut=40 / intra_refresh=0 / rc_lookahead=40 / rc=2pass / mbtree=1 / bitrate=1590 / ratetol=1.0 / qcomp=0.60 / qpmin=0 / qpmax=69 / qpstep=4 / cplxblur=20.0 / qblur=0.5 / vbv_maxrate=14000 / vbv_bufsize=14000 / nal_hrd=none / filler=0 / ip_ratio=1.40 / aq=1:1.00
Default : Yes
Forced : No
Audio
ID : 2
Format : AC-3
Format/Info : Audio Coding 3
Mode extension : CM (complete main)
Codec ID : A_AC3
Duration : 1h 45mn
Bit rate mode : Constant
Bit rate : 384 Kbps
Channel(s) : 6 channels
Channel positions : Front: L C R, Side: L R, LFE
Sampling rate : 48.0 KHz
Bit depth : 16 bits
Compression mode : Lossy
Stream size : 290 MiB (19%)
Language : Russian
Default : Yes
Forced : No

Скриншоты

[Профиль] [ЛС]
Показать сообщения:    

Текущее время: Сегодня 02:43

Часовой пояс: GMT



Вы не можете начинать темы
Вы не можете отвечать на сообщения
Вы не можете редактировать свои сообщения
Вы не можете удалять свои сообщения
Вы не можете голосовать в опросах
Вы не можете прикреплять файлы к сообщениям
Вы не можете скачивать файлы