Гильотина / Гильотины в 3Д / Xue di zi / The Guillotines 3D (Вэй Кеунг Лау / Wai Keung Lau) [2012, Боевик, Драма, BDrip-AVC] VO (GREEN TEA), Half OverUnder / Вертикальная анаморфная стереопара

 
Автор Сообщение

TorrentFilm ®

Пол:

Стаж: 2 года

Сообщений: 7741



Награды: Нет

Торрент-статистика

Создавать темы 02-Янв-2016 00:10

[Цитировать]

Гильотина (Гильотины)
Xue di zi
The Guillotines

Год выпуска: 2012
Страна: Китай, Гонконг (Splendid Film, Amasia, WE Pictures, ...)
Жанр: Боевик, Драма
Продолжительность: 01:52:46
Перевод: Любительский двухголосый закадровый (GREEN TEA: Виктор Ерёменко и Ольга Гринтиева)
Режиссер: Вэй Кеунг Лау / Wai Keung Lau
В ролях: Хуан Сяомин (Wolf), Этан Жуань (Leng), Юйчунь Ли (Musen), Шон Юе (Haidu), Пурба Ргиал (Chentai), Тянь Гао (Hutu), И Вэй Чжоу (Buka), Цзин Божань (Shisan), Пенг Гуо (Su), Юй Ван (Gong-E),Ли Менг (Bai Lan), Ши-Чжи Чжин (Wan Jiang), Вэй Кеунг Лау (Yongzheng), Чжан Вэнь (Qianlong)
Описание: Это оружие известно, как самое смертоносное из всех когда-либо изобретенных, простое упоминание его названия вселяет ужас в сердца людей. Запущенное с расстояния оно попадает точно в цель и обезглавливает ее своими острыми лезвиями. Таким оружием пользуется отряд элитных бойцов под названием «Гильотина», и никакие мольбы о пощаде не спасут их врагов от неминуемой участи.
Доп. инфо о русской дороге: Центральный канал оригинальной дороги заменён каналом русской. Поскольку громкость озвучки была весьма неравномерной, на некоторых фразах пришлось поднимать уровень русской озвучки, а где-то снижать уровень некоторых каналов оригинальной. Хотя парочка фраз всё равно остались неразборчивы или на грани.-Премьера (мир): 20 декабря 2012
Бюджет: $15 000 000

. .
-Качество: BDRip (by Ash61)
Контейнер: MKV
Формат 3D: Half OverUnder / Вертикальная анаморфная стереопара
Порядок ракурсов: левый ракурс первый
Видео кодек: x264
Аудио кодек: AC3-Видео: AVC / 23,976 fps / 1920х1080p / 18.0 Mbps
Аудио:
#1 - Русский / AC3 / 48 KHz / 5.1 ch / 640 Kbps (DVO - GREEN TEA) [Отредактировано и смикшировано в 5.1 by Ash61]
#2 - Китайский / AC3 / 48 KHz / 5.1 ch / 640 Kbps (Original - BD 3D)
Субтитры: (SRT)
Внешние (UTF-8):
#1 - Русские Форсированные (Палата 666) (включены по умолчанию)
#2 - Русские Полные (Палата 666)
#4 - English Full
Вшитые (softsub):
#1 - Русские Форсированные (включены по умолчанию)За субтитры спасибо lesnik125 !

MediaInfo

General
Unique ID : 204563411257151244918270106465931223117 (0x99E57ADC787B48A9B24BF15A6175E04D)
Complete name : E:\TheGuillotines(2012)3D-halfOU(Ash61)DVO-5.1\TheGuillotines(2012)3D-halfOU(Ash61)DVO-5.1.mkv
Format : Matroska
Format version : Version 2
File size : 15.5 GiB
Duration : 1h 52mn
Overall bit rate : 19.7 Mbps
Movie name : Гильотина / The Guillotines / Xue di zi (2012) 3D
Encoded date : UTC 2014-02-27 16:42:31
Writing application : mkvmerge v5.8.0 ('No Sleep / Pillow') built on Sep 2 2012 15:37:04
Writing library : libebml v1.2.3 + libmatroska v1.3.0
Video
ID : 1
Format : AVC
Format/Info : Advanced Video Codec
Format profile : High@L4.1
Format settings, CABAC : Yes
Format settings, ReFrames : 4 frames
Codec ID : V_MPEG4/ISO/AVC
Bit rate : 18.0 Mbps
Width : 1 920 pixels
Height : 1 080 pixels
Display aspect ratio : 16:9
Frame rate mode : Variable
Original frame rate : 23.976 fps
Color space : YUV
Chroma subsampling : 4:2:0
Bit depth : 8 bits
Scan type : Progressive
Writing library : x264 core 129 r2245 bc13772
Encoding settings : cabac=1 / ref=4 / deblock=1:-3:-3 / analyse=0x3:0x113 / me=umh / subme=10 / psy=1 / psy_rd=1.00:0.15 / mixed_ref=1 / me_range=32 / chroma_me=1 / trellis=2 / 8x8dct=1 / cqm=0 / deadzone=21,11 / fast_pskip=1 / chroma_qp_offset=-3 / threads=12 / lookahead_threads=2 / sliced_threads=0 / nr=0 / decimate=1 / interlaced=0 / bluray_compat=0 / constrained_intra=0 / bframes=9 / b_pyramid=2 / b_adapt=2 / b_bias=0 / direct=3 / weightb=1 / open_gop=0 / weightp=2 / keyint=250 / keyint_min=23 / scenecut=40 / intra_refresh=0 / rc_lookahead=60 / rc=crf / mbtree=1 / crf=16.5 / qcomp=0.70 / qpmin=0 / qpmax=69 / qpstep=4 / vbv_maxrate=40000 / vbv_bufsize=30000 / crf_max=0.0 / nal_hrd=none / frame-packing=4 / ip_ratio=1.40 / aq=1:0.70
Language : Chinese
Default : Yes
Forced : No
Audio #1
ID : 2
Format : AC-3
Format/Info : Audio Coding 3
Mode extension : CM (complete main)
Format settings, Endianness : Big
Codec ID : A_AC3
Duration : 1h 52mn
Bit rate mode : Constant
Bit rate : 640 Kbps
Channel(s) : 6 channels
Channel positions : Front: L C R, Side: L R, LFE
Sampling rate : 48.0 KHz
Bit depth : 16 bits
Compression mode : Lossy
Stream size : 516 MiB (3%)
Title : DVO - Виктор Ерёменко и Ольга Гринтиева (GREEN TEA) (ред. и микс в 5.1 by Ash61)
Language : Russian
Default : Yes
Forced : No
Audio #2
ID : 3
Format : AC-3
Format/Info : Audio Coding 3
Mode extension : CM (complete main)
Format settings, Endianness : Big
Codec ID : A_AC3
Duration : 1h 52mn
Bit rate mode : Constant
Bit rate : 640 Kbps
Channel(s) : 6 channels
Channel positions : Front: L C R, Side: L R, LFE
Sampling rate : 48.0 KHz
Bit depth : 16 bits
Compression mode : Lossy
Stream size : 516 MiB (3%)
Title : Original - BD 3D
Language : Chinese
Default : No
Forced : No
Text
ID : 4
Format : UTF-8
Codec ID : S_TEXT/UTF8
Codec ID/Info : UTF-8 Plain Text
Title : Форсированные
Language : Russian
Default : Yes
Forced : No
Menu
00:00:00.000 : :1
00:07:44.464 : :2
00:17:24.293 : :3
00:27:03.330 : :4
00:35:26.750 : :5
00:45:17.089 : :6
00:58:16.326 : :7
01:07:58.658 : :8
01:20:44.757 : :9
01:32:19.993 : :10
01:41:58.237 : :11
01:48:57.531 : :12

Для оценки 3Д - Анимированные скрины












Историческая справка

Династия Цин маньчжурского происхождения - последняя из правящих династий в Китае.
Вопреки своей скромной, по сравнению с остальным Китаем, территории, Маньчжурия сумела захватить власть в 17 веке и править до момента окончательного свержения в 20 веке. Конфликты с властью достаточно долго сотрясали страну, поскольку превалирующее население было хань или ханьцы или, как называют их в нашей стране - китайцы. Маньчжуры принадлежат другой народности, со своим языком, письмом и отчасти культурой, что всегда старались подчеркнуть (пока окончательно не ассимилировались).
После завоевания Китая, маньчжуры предписали китайцам (то есть, ханьцам) выбривать переднюю часть головы, а оставшиеся волосы заплетать в косу. Неисполнение данного приказа каралось смертной казнью.
Времена правления императора Цяньлуна (буквально "небесное процветание" - девиз эры правления) по праву считают золотым веком, расцветом империи (которое потом и привело к упадку из-за слишком хорошей жизни).

Техн. детали съёмки:

  • Съёмки: Апрель 2011 — нет данных
  • Формат изображения: 2.35 : 1
  • Камера: Arri Alexa, Zeiss Ultra Prime and Angenieux Optimo Lenses
    Red Epic, Zeiss Ultra Prime Lenses
  • Формат копии: 35 mm (anamorphic)
    D-Cinema
  • Формат съёмок: Codex
    Redcode RAW
  • Изображение: цветное
  • Язык: мандаринский
[Профиль] [ЛС]
Кто просматривает тему:

Показать сообщения:    

Текущее время: Сегодня 18:46

Часовой пояс: GMT



Вы не можете начинать темы
Вы не можете отвечать на сообщения
Вы не можете редактировать свои сообщения
Вы не можете удалять свои сообщения
Вы не можете голосовать в опросах
Вы не можете прикреплять файлы к сообщениям
Вы не можете скачивать файлы