Гиена / Hyena (2014) BDRip 1080p от Переулка Переводмана | А

 
Автор Сообщение

достали все ®

Пол:

Стаж: 1 год 8 месяцев

Сообщений: 6605



Награды: 12 (Подробнее)

Top Releaser 4 (Количество: 1) Mega Seeder 2 (Количество: 1) Mega Releaser 1 (Количество: 1)
Торрент-статистика

Создавать темы 28-Сен-2016 12:52

[Цитировать]

Название: Гиена
Оригинальное название: Hyena
Год выхода: 2014
Страна: Великобритания
Студия: Film4, Number 9 Films
Продолжительность: 01:52:32
Жанр: драма, криминал, ...
Режиссер: Герард Джонсон
В ролях: Питер Фердинандо, Стивен Грэм, Нил Мэскелл, Элиза Ласовски, МайАнна Бёринг, Ричард Дормер, Гордон Браун, Тони Питтс, Орли Шука, Джеват Келменди, ...
Перевод: Авторский (одноголосый, закадровый) Чадов Михаил
О фильме: Быть хорошим полицейским не означает делать все по учебнику. Но, когда преступная деятельность в Лондоне идет на пользу албанцам и туркам, как выжить «хорошему» полицейскому?…
Жесткая криминальная драма. В комплекте все атрибуты жанра: кровь, обнаженка, мат...

Кодек: x264
Качество: BDRip 1080p
Видео: 1920x808, 8105 kbps, 24 fps
Аудио #1: AC-3, 6 ch, 640 kbps (Rus) - AVO Чадов Михаил
Аудио #2: DTS, 6 ch, 1509 kbps (Eng)
Субтитры: Английские

Дополнительная информация

Перевод и озвучка Михаила Чадова стали доступны благодаря Переулку Переводмана и следующим его пользователям: Star Dog, Антиквар, kidman644, ana2363, MaXim, 7654, Indian1990, iVov4ik, karbofos, Drowse Reloaded, Бениамин.
Постер: Ольга Левицкая

MediaInfo

Общее
Уникальный идентификатор : 178751780842405452499945737952207909260 (0x867A573A52C57FDE8A3E6EA84361318C)
Полное имя : C:TorrentГиена (Hyena) 2014 BDRip 1080p.mkv
Формат : Matroska
Версия формата : Version 2
Размер файла : 8,06 Гбайт
Продолжительность : 1 ч. 52 м.
Общий поток : 10,3 Мбит/сек
Дата кодирования : UTC 2016-09-28 09:13:42
Программа кодирования : mkvmerge v4.0.0 ('The Stars were mine') сборка от Jun 6 2010 16:18:42
Библиотека кодирования : libebml v1.0.0 + libmatroska v1.0.0
Видео
Идентификатор : 1
Формат : AVC
Формат/Информация : Advanced Video Codec
Профиль формата : High@L4.1
Параметр CABAC формата : Да
Параметр ReFrames формата : 5 кадров
Идентификатор кодека : V_MPEG4/ISO/AVC
Продолжительность : 1 ч. 52 м.
Битрейт : 8105 Кбит/сек
Ширина : 1920 пикселей
Высота : 808 пикселей
Соотношение сторон : 2,40:1
Режим частоты кадров : Постоянный
Частота кадров : 24,000 кадра/сек
Цветовое пространство : YUV
Субдискретизация насыщенности : 4:2:0
Битовая глубина : 8 бит
Тип развёртки : Прогрессивная
Бит/(Пиксели*Кадры) : 0.218
Размер потока : 6,21 Гбайт (77%)
Библиотека кодирования : x264 core 148 r2597 e86f3a1
Настройки программы : cabac=1 / ref=5 / deblock=1:-3:-3 / analyse=0x3:0x113 / me=umh / subme=8 / psy=1 / psy_rd=1.00:0.00 / mixed_ref=1 / me_range=16 / chroma_me=1 / trellis=1 / 8x8dct=1 / cqm=0 / deadzone=21,11 / fast_pskip=1 / chroma_qp_offset=-2 / threads=18 / lookahead_threads=3 / sliced_threads=0 / nr=0 / decimate=1 / interlaced=0 / bluray_compat=0 / constrained_intra=0 / bframes=3 / b_pyramid=2 / b_adapt=2 / b_bias=0 / direct=3 / weightb=1 / open_gop=0 / weightp=2 / keyint=240 / keyint_min=24 / scenecut=40 / intra_refresh=0 / rc_lookahead=50 / rc=2pass / mbtree=1 / bitrate=8105 / ratetol=1.0 / qcomp=0.60 / qpmin=0 / qpmax=69 / qpstep=4 / cplxblur=20.0 / qblur=0.5 / ip_ratio=1.40 / aq=1:1.00
Язык : English
Default : Нет
Forced : Нет
Аудио #1
Идентификатор : 2
Формат : AC-3
Формат/Информация : Audio Coding 3
Расширение режима : CM (complete main)
Параметр Endianness формата : Big
Идентификатор кодека : A_AC3
Продолжительность : 1 ч. 52 м.
Вид битрейта : Постоянный
Битрейт : 640 Кбит/сек
Каналы : 6 каналов
Расположение каналов : Front: L C R, Side: L R, LFE
Частота : 48,0 КГц
Частота кадров : 31,250 кадров/сек (1536 spf)
Метод сжатия : С потерями
Размер потока : 515 Мбайт (6%)
Заголовок : AVO Чадов Михаил
Язык : Russian
Default : Нет
Forced : Нет
Аудио #2
Идентификатор : 3
Формат : DTS
Формат/Информация : Digital Theater Systems
Режим : 16
Параметр Endianness формата : Big
Идентификатор кодека : A_DTS
Продолжительность : 1 ч. 52 м.
Вид битрейта : Постоянный
Битрейт : 1509 Кбит/сек
Каналы : 6 каналов
Расположение каналов : Front: L C R, Side: L R, LFE
Частота : 48,0 КГц
Частота кадров : 93,750 кадра/сек (512 spf)
Битовая глубина : 24 бит
Метод сжатия : С потерями
Задержка видео : 11 мс.
Размер потока : 1,19 Гбайт (15%)
Язык : English
Default : Нет
Forced : Нет
Текст
Идентификатор : 4
Формат : UTF-8
Идентификатор кодека : S_TEXT/UTF8
Идентификатор кодека/Информация : UTF-8 Plain Text
Язык : English
Default : Нет
Forced : Нет

[Профиль] [ЛС]
Кто просматривает тему:

Форум Тема Автор Размер
Фильмы 2014 года Гиена / Hyena (2014) HDRip | А достали все 1.46 GB
Показать сообщения:    

Текущее время: Сегодня 09:11

Часовой пояс: GMT



Вы не можете начинать темы
Вы не можете отвечать на сообщения
Вы не можете редактировать свои сообщения
Вы не можете удалять свои сообщения
Вы не можете голосовать в опросах
Вы не можете прикреплять файлы к сообщениям
Вы не можете скачивать файлы