Герои / Heroes (Пао Фрейхаус / Pau Freixas) [2010, Испания, Драма, DVDRip-AVC] VO + Sub Rus + Original Spa

 
Автор Сообщение

painkiller ®

Стаж: 2 года 3 месяца

Сообщений: 582



Награды: Нет

Торрент-статистика

Создавать темы 14-Авг-2014 13:01

[Цитировать]

Герои / Heroes
Страна: Испания
Жанр: Драма
Год выпуска: 2010
Продолжительность: 01:43:57
Перевод: Одноголосый закадровый
Cубтитры: русские и английские
Оригинальная аудиодорожка: испанский
Режиссер: Пао Фрейхаус / Pau Freixas
В ролях: Albert Adria , Эльза Энка, Марк Балагер, Alex Brendemuhl, Нереа Камачо, Эктор Кларамунт, Гонсало Канилл, Xavier Gil Esteller, Дэвид Фернандез, Льюис Омар
Описание: Молодому публицисту, с успешной профессиональной карьерой, но неудавшейся личной жизнью, нужно ехать, чтобы попасть на важную деловую встречу. В пути он узнает молодую девушку, с которой, несмотря на их противоположные взгляды на жизнь, он дружил. Он вспоминал самую мифическую и эмоциональную эпоху его детства: последнее лето, которое они провели со своими друзьями.
Сэмпл: http://multi-up.com/968140
Качество видео:DVDRip-AVC
Формат видео: MKV
Видео: 720x480 (1.50:1), 23.976 fps, Intel ITU H.264 ~1484 kbps avg, 0.18 bit/pixel
Аудио 1: 44.100 kHz, MPEG Layer 3, 2 ch, ~128.00 kbps avg(Русский)
Аудио 2: 44.100 kHz, MPEG Layer 3, 2 ch, ~128.00 kbps avg(Испанский)
Формат субтитров: softsub (SRT)
Доп. информация о субтитрах: Русские внешние (by Thoma_ специально для BoyArtWorld)

MediaInfo

Общее
Уникальный идентификатор : 234356149100396779844572552584799775446 (0xB04F5A3EC672E4DEB8E7CE3212C8EAD6)
Полное имя : F:\С моей озвучкой\Герои MKV\Heroes.mkv
Формат : Matroska
Версия формата : Version 4 / Version 2
Размер файла : 1,27 Гбайт
Продолжительность : 1 ч. 43 м.
Режим общего битрейта : Переменный
Общий поток : 1743 Кбит/сек
Дата кодирования : UTC 2014-04-20 04:05:10
Программа кодирования : mkvmerge v6.1.0 ('Old Devil') built on Mar 4 2013 09:10:42
Библиотека кодирования : libebml v1.3.0 + libmatroska v1.4.0
Видео
Идентификатор : 1
Формат : AVC
Формат/Информация : Advanced Video Codec
Профиль формата : Baseline@L3.0
Параметр CABAC формата : Нет
Параметр ReFrames формата : 1 кадр
Параметр GOP формата : M=1, N=12
Идентификатор кодека : V_MPEG4/ISO/AVC
Продолжительность : 1 ч. 43 м.
Вид битрейта : Переменный
Битрейт : 1452 Кбит/сек
Максимальный битрейт : 2230 Кбит/сек
Ширина : 720 пикселей
Высота : 480 пикселей
Соотношение сторон : 3:2
Соотношение сторон в оригинале : 3:2
Частота кадров : 23,976 кадра/сек
Частота кадров в оригинале : 24,000 кадра/сек
Стандарт вещания : NTSC
Цветовое пространство : YUV
Субдискретизация насыщенности : 4:2:0
Битовая глубина : 8 бит
Тип развёртки : Прогрессивная
Бит/(Пиксели*Кадры) : 0.175
Размер потока : 1,05 Гбайт (83%)
Default : Да
Forced : Нет
Аудио #1
Идентификатор : 2
Формат : MPEG Audio
Версия формата : Version 1
Профиль формата : Layer 3
Режим : Joint stereo
Идентификатор кодека : A_MPEG/L3
Идентификатор кодека/Подсказка : MP3
Продолжительность : 1 ч. 43 м.
Вид битрейта : Постоянный
Битрейт : 128 Кбит/сек
Каналы : 2 канала
Частота : 44,1 КГц
Метод сжатия : С потерями
Размер потока : 95,2 Мбайт (7%)
Библиотека кодирования : LAME3.98
Язык : Russian
Default : Да
Forced : Нет
Аудио #2
Идентификатор : 3
Формат : MPEG Audio
Версия формата : Version 1
Профиль формата : Layer 3
Режим : Joint stereo
Расширение режима : MS Stereo
Идентификатор кодека : A_MPEG/L3
Идентификатор кодека/Подсказка : MP3
Продолжительность : 1 ч. 43 м.
Вид битрейта : Постоянный
Битрейт : 128 Кбит/сек
Каналы : 2 канала
Частота : 44,1 КГц
Метод сжатия : С потерями
Размер потока : 95,2 Мбайт (7%)
Библиотека кодирования : LAME3.97
Язык : Spanish
Default : Нет
Forced : Нет

Скриншоты

[Профиль] [ЛС]

Создавать темы 06-Авг-2015 23:14 (спустя 11 месяцев 23 дня)

Топик был перенесен из форума Фильмы до 2014 года в форум Фильмы до 2012 года
sergej644
 

Создавать темы 12-Июн-2016 07:54 (спустя 1 год 9 месяцев)

Топик был перенесен из форума Фильмы 2011 года в форум Фильмы 2010 года
Russian Mafia
 
Кто просматривает тему:

Форум Тема Автор Размер
BBC BBC: Женщины эпохи Реставрации (Куртизанки, домохозяйки и героини) / Harlots Housewives and Heroines: A 17th Century History for Girls [серии 1-3 из 3](Nick Gillam-Smith, Eleanor Scoones) [2012 г... skorpionN 4.33 GB
Стратегии Heroes of Might and Magic I-IV + Heroes of Might and Magic V: Gold edition / Герои Меча и Магии: Новогоднее издание + Герои Меча и Магии 5: Золотое издание (RUS) [L] Белочка 8.48 GB
Зарубежные Мультфильмы (BDRip 1080p, 720p, Blu-ray, BD-Remux) LEGO Супергерои DC: Лига Справедливости – Прорыв Готэм-Сити (2016) BDRip 1080р wolf1245 5.35 GB
Зарубежные Мультфильмы (BDRip 1080p, 720p, Blu-ray, BD-Remux) LEGO Супергерои DC: Лига Справедливости – Прорыв Готэм-Сити (2016) BDRip 720р wolf1245 3.17 GB
Зарубежные мультфильмы LEGO Супергерои DC: Лига Справедливости – Прорыв Готэм-Сити (2016) HDRip wolf1245 1.37 GB
Action TPS (3rd Person) Red Orchestra 2: Герои Сталинграда / Red Orchestra 2: Heroes of Stalingrad (2011) PC | Steam-Rip от Juk.v.Muravenike достали все 23.7 GB
Фантастика, фэнтези Алексей Жидков | Глупцы и Герои. Почти умер, чтобы выжить [Полная книга] (2015) [FB2] достали все 1 MB
Фильмы до 2012 года Брест. Крепостные Герои (2010) DVDRip-AVC от New-Team sergej644 744 MB
Показать сообщения:    

Текущее время: Сегодня 18:02

Часовой пояс: GMT



Вы не можете начинать темы
Вы не можете отвечать на сообщения
Вы не можете редактировать свои сообщения
Вы не можете удалять свои сообщения
Вы не можете голосовать в опросах
Вы не можете прикреплять файлы к сообщениям
Вы не можете скачивать файлы