Геркулес / Hercules (1997) BDRip [720p]

 
Автор Сообщение

sergej644 ®

Пол:

Стаж: 4 года 11 месяцев

Сообщений: 6043

Откуда: Soviet Union



Награды: Нет

Торрент-статистика

Создавать темы 10-Окт-2014 21:10

[Цитировать]

-Геркулес / Hercules (1997) [720p] BDRip- Год выпуска: 1997
Жанр: Рисованная анимация, Детский, Приключения
Описание:
Аид — властитель загробного мира. Много лет назад он был фактически сослан своим старшим братом Зевсом в глубины Ада и теперь намерен наверстать упущенное, собрав армию монстров и захватив Олимп. Единственный, кто может помешать Аиду — сын Зевса, юный Геркулес, поэтому прислужники злодея похищают младенца и превращают его в простого смертного.
Спустя много лет юноша узнает о своем происхождении и ставит целью вернуться домой, но для этого ему придется совершить немало подвигов и стать настоящим героем. Но, как выясняется, даже победы над силами зла недостаточно, чтобы вернуть божественное начало…
Режиссер: Рон Клементс / Ron Clements, Джон Маскер / John Musker
Роли дублировали: Родион Приходько (Hercules), Ярослав Иванов (Young Hercules), Игорь Балакирев (Young Hercules (вокал)), Борис Хвошнянский (Philoctetes), Сергей Мардарь (Philoctetes (вокал)), Николай Буров (Hades; Lord of the Underworld), Сауле Искакова (Meg; Calliope the Muse of Epics and the Lead Muse), Ольга Кортушова (Meg (вокал)), Алексей Гурьев (Pain; Cyclops), Валерий Кухарешин (Panic), Александр Демьяненко (Zeus), Светлана Шейченко (Hera, Hercules' Mother)
Перевод: Профессиональный (полное дублирование), многоголосый закадровый, Одноголосый закадровый
Язык субтитров: Русский, English, English (SDH)-
Дата мировой премьеры: 14 июня 1997
Дата премьеры (РФ): 2 июня 2001, «Каскад»
Релиз на Blu-Ray (РФ): 28 января 2014, «Уолт Дисней Компани СНГ»-Релиз от:
Продолжительность: 01:33:12
Качество видео: BDRip (batonchik)
Видео: MPEG-4 AVC Video / 3349 Кбит/сек / 1280x720p / 23,976 fps / 16:9 / High Profile 4.1
Аудио:
1: Russian: 48 kHz/16-bit, AC3, 3/2 (L,C,R,l,r) + LFE ch, ~640.00 kbps avg |Дубляж, Blu-ray NORDiC|
2: Russian: 48 kHz/16-bit, AC3, 3/2 (L,C,R,l,r) + LFE ch, ~384.00 kbps avg |Многоголосый закадровый|
3: Russian: 48 kHz/16-bit, AC3, 3/2 (L,C,R,l,r) + LFE ch, ~384.00 kbps avg |Многоголосый закадровый, НТВ+|
4: Russian: 48 kHz/24-bit, DTS, 3/2 (L,C,R,l,r) + LFE ch, ~755.00 kbps avg |Одноголосый закадровый, П. Санаев|
5: Russian: 48 kHz/16-bit, AC3, 2/0 (L,R), ~192.00 kbps avg |Одноголосый закадровый, Н. Антонов|
6: English: 48 kHz/24-bit, DTS, 3/2 (L,C,R,l,r) + LFE ch, ~1509.00 kbps avg |Оригинал|

Дополнительно: За русские дорожки спасибо HDCLUB.

h.264 log:

--[Information] [07.10.2014 10:37:27] Standard error stream
---[Information] [07.10.2014 10:37:33] raw [info]: 1280x720p 1:1 @ 24000/1001 fps (cfr)
---[Information] [07.10.2014 10:37:33] x264 [info]: using SAR=1/1
---[Information] [07.10.2014 10:37:33] x264 [info]: using cpu capabilities: MMX2 SSE2Fast SSSE3 SSE4.2 AVX
---[Information] [07.10.2014 10:37:33] x264 [info]: profile High, level 4.1
---[Information] [07.10.2014 15:01:12] x264 [info]: frame I:1070 Avg QP:11.38 size:140910
---[Information] [07.10.2014 15:01:12] x264 [info]: frame P:39075 Avg QP:15.38 size: 33190
---[Information] [07.10.2014 15:01:12] x264 [info]: frame B:93933 Avg QP:17.26 size: 9511

---[Information] [07.10.2014 15:01:12] x264 [info]: consecutive B-frames: 6.2% 5.2% 15.2% 42.7% 16.4% 8.1% 1.8% 1.4% 0.7% 0.5% 0.6% 1.2%
---[Information] [07.10.2014 15:01:12] x264 [info]: mb I I16..4: 16.0% 53.8% 30.2%
---[Information] [07.10.2014 15:01:12] x264 [info]: mb P I16..4: 2.6% 6.8% 4.0% P16..4: 28.5% 29.3% 10.4% 3.1% 0.7% skip:14.7%
---[Information] [07.10.2014 15:01:12] x264 [info]: mb B I16..4: 0.4% 0.6% 0.4% B16..8: 31.0% 14.4% 2.8% direct: 2.5% skip:47.9% L0:49.6% L1:45.2% BI: 5.2%
---[Information] [07.10.2014 15:01:12] x264 [info]: 8x8 transform intra:50.1% inter:39.5%
---[Information] [07.10.2014 15:01:12] x264 [info]: direct mvs spatial:94.3% temporal:5.7%
---[Information] [07.10.2014 15:01:12] x264 [info]: coded y,uvDC,uvAC intra: 63.7% 81.0% 61.9% inter: 10.3% 15.6% 5.5%
---[Information] [07.10.2014 15:01:12] x264 [info]: i16 v,h,dc,p: 44% 14% 13% 30%
---[Information] [07.10.2014 15:01:12] x264 [info]: i8 v,h,dc,ddl,ddr,vr,hd,vl,hu: 10% 9% 19% 9% 10% 9% 11% 11% 13%
---[Information] [07.10.2014 15:01:12] x264 [info]: i4 v,h,dc,ddl,ddr,vr,hd,vl,hu: 14% 10% 16% 9% 11% 10% 10% 9% 11%
---[Information] [07.10.2014 15:01:12] x264 [info]: i8c dc,h,v,p: 44% 27% 18% 11%
---[Information] [07.10.2014 15:01:12] x264 [info]: Weighted P-Frames: Y:2.4% UV:1.8%
---[Information] [07.10.2014 15:01:12] x264 [info]: ref P L0: 47.3% 3.1% 19.9% 9.3% 6.7% 5.4% 4.5% 2.9% 0.7% 0.0%
---[Information] [07.10.2014 15:01:12] x264 [info]: ref B L0: 62.2% 16.2% 9.9% 4.8% 3.7% 2.2% 1.1%
---[Information] [07.10.2014 15:01:12] x264 [info]: ref B L1: 89.7% 10.3%
---[Information] [07.10.2014 15:01:12] x264 [info]: kb/s:3349.08
---[Information] [07.10.2014 15:01:12] encoded 134078 frames, 8.48 fps, 3349.08 kb/s
--[Information] [07.10.2014 15:01:12] Final statistics
---[Information] [07.10.2014 15:01:12] Video Bitrate Desired: 3349 kbit/s
---[Information] [07.10.2014 15:01:12] Video Bitrate Obtained (approximate): 3350 kbit/s

MediaInfo:

Общее
Уникальный идентификатор : 254355196263046673818974821380875576924 (0xBF5B0765F2A085FE85CCAB78F4B3665C)
Полное имя : \Геркулес_Hercules.1997.720p.BDRip.batonchik.mkv
Формат : Matroska
Версия формата : Version 4 / Version 2
Размер файла : 4,01 Гбайт
Продолжительность : 1 ч. 33 м.
Общий поток : 6154 Кбит/сек
Название фильма : Геркулес_Hercules.1997.720p.BDRip.batonchik
Дата кодирования : UTC 2010-02-22 21:41:31
Программа кодирования : mkvmerge v5.8.0 ('No Sleep / Pillow') built on Nov 13 2012 19:43:22
Библиотека кодирования : libebml v1.3.0 + libmatroska v1.4.0
Видео
Идентификатор : 1
Формат : AVC
Формат/Информация : Advanced Video Codec
Профиль формата : [url=mailto:High@L4.1]High@L4.1[/url]
Параметр CABAC формата : Да
Параметр ReFrames формата : 8 кадров
Идентификатор кодека : V_MPEG4/ISO/AVC
Продолжительность : 1 ч. 33 м.
Битрейт : 3349 Кбит/сек
Ширина : 1280 пикселей
Высота : 720 пикселей
Соотношение сторон : 16:9
Режим частоты кадров : Постоянный
Частота кадров : 23,976 кадра/сек
Цветовое пространство : YUV
Субдискретизация насыщенности : 4:2:0
Битовая глубина : 8 бит
Тип развёртки : Прогрессивная
Бит/(Пиксели*Кадры) : 0.152
Размер потока : 2,10 Гбайт (52%)
Заголовок : Геркулес_Hercules.1997.720p.BDRip.batonchik
Библиотека кодирования : x264 core 142 r2479 dd79a61
Настройки программы : cabac=1 / ref=8 / deblock=1:0:0 / analyse=0x3:0x133 / me=umh / subme=11 / psy=1 / psy_rd=1.00:0.15 / mixed_ref=1 / me_range=32 / chroma_me=1 / trellis=2 / 8x8dct=1 / cqm=0 / deadzone=21,11 / fast_pskip=0 / chroma_qp_offset=-3 / threads=12 / lookahead_threads=3 / sliced_threads=0 / nr=0 / decimate=1 / interlaced=0 / bluray_compat=0 / constrained_intra=0 / bframes=11 / b_pyramid=2 / b_adapt=2 / b_bias=0 / direct=3 / weightb=1 / open_gop=0 / weightp=2 / keyint=250 / keyint_min=23 / scenecut=40 / intra_refresh=0 / rc_lookahead=40 / rc=2pass / mbtree=1 / bitrate=3349 / ratetol=1.0 / qcomp=0.60 / qpmin=0 / qpmax=69 / qpstep=4 / cplxblur=20.0 / qblur=0.5 / vbv_maxrate=50000 / vbv_bufsize=62500 / nal_hrd=none / filler=0 / ip_ratio=1.40 / aq=1:1.00
Язык : English
Default : Да
Forced : Нет
Аудио #1
Идентификатор : 2
Формат : AC-3
Формат/Информация : Audio Coding 3
Расширение режима : CM (complete main)
Параметр Endianness формата : Big
Идентификатор кодека : A_AC3
Продолжительность : 1 ч. 33 м.
Вид битрейта : Постоянный
Битрейт : 640 Кбит/сек
Каналы : 6 каналов
Расположение каналов : Front: L C R, Side: L R, LFE
Частота : 48,0 КГц
Битовая глубина : 16 бит
Метод сжатия : С потерями
Размер потока : 427 Мбайт (10%)
Заголовок : Дубляж - Blu-ray
Язык : Russian
Default : Да
Forced : Нет
Аудио #2
Идентификатор : 3
Формат : AC-3
Формат/Информация : Audio Coding 3
Расширение режима : CM (complete main)
Параметр Endianness формата : Big
Идентификатор кодека : A_AC3
Продолжительность : 1 ч. 33 м.
Вид битрейта : Постоянный
Битрейт : 384 Кбит/сек
Каналы : 6 каналов
Расположение каналов : Front: L C R, Side: L R, LFE
Частота : 48,0 КГц
Битовая глубина : 16 бит
Метод сжатия : С потерями
Размер потока : 256 Мбайт (6%)
Заголовок : MVO
Язык : Russian
Default : Нет
Forced : Нет
Аудио #3
Идентификатор : 4
Формат : AC-3
Формат/Информация : Audio Coding 3
Расширение режима : CM (complete main)
Параметр Endianness формата : Big
Идентификатор кодека : A_AC3
Продолжительность : 1 ч. 33 м.
Вид битрейта : Постоянный
Битрейт : 384 Кбит/сек
Каналы : 6 каналов
Расположение каналов : Front: L C R, Side: L R, LFE
Частота : 48,0 КГц
Битовая глубина : 16 бит
Метод сжатия : С потерями
Размер потока : 256 Мбайт (6%)
Заголовок : MVO - НТВ+
Язык : Russian
Default : Нет
Forced : Нет
Аудио #4
Идентификатор : 5
Формат : DTS
Формат/Информация : Digital Theater Systems
Режим : 16
Параметр Endianness формата : Big
Идентификатор кодека : A_DTS
Продолжительность : 1 ч. 33 м.
Вид битрейта : Постоянный
Битрейт : 755 Кбит/сек
Каналы : 6 каналов
Расположение каналов : Front: L C R, Side: L R, LFE
Частота : 48,0 КГц
Битовая глубина : 24 бит
Метод сжатия : С потерями
Размер потока : 503 Мбайт (12%)
Заголовок : AVO - П. Санаев
Язык : Russian
Default : Нет
Forced : Нет
Аудио #5
Идентификатор : 6
Формат : AC-3
Формат/Информация : Audio Coding 3
Расширение режима : CM (complete main)
Параметр Endianness формата : Big
Идентификатор кодека : A_AC3
Продолжительность : 1 ч. 33 м.
Вид битрейта : Постоянный
Битрейт : 192 Кбит/сек
Каналы : 2 канала
Расположение каналов : Front: L R
Частота : 48,0 КГц
Битовая глубина : 16 бит
Метод сжатия : С потерями
Размер потока : 128 Мбайт (3%)
Заголовок : AVO - Н. Антонов
Язык : Russian
Default : Нет
Forced : Нет
Аудио #6
Идентификатор : 7
Формат : AC-3
Формат/Информация : Audio Coding 3
Расширение режима : CM (complete main)
Параметр Endianness формата : Big
Идентификатор кодека : A_AC3
Продолжительность : 1 ч. 33 м.
Вид битрейта : Постоянный
Битрейт : 448 Кбит/сек
Каналы : 6 каналов
Расположение каналов : Front: L C R, Side: L R, LFE
Частота : 48,0 КГц
Битовая глубина : 16 бит
Метод сжатия : С потерями
Размер потока : 299 Мбайт (7%)
Заголовок : Оригинал
Язык : English
Default : Нет
Forced : Нет
Текст #1
Идентификатор : 8
Формат : UTF-8
Идентификатор кодека : S_TEXT/UTF8
Идентификатор кодека/Информация : UTF-8 Plain Text
Заголовок : Форс.
Язык : Russian
Default : Да
Forced : Нет
Текст #2
Идентификатор : 9
Формат : UTF-8
Идентификатор кодека : S_TEXT/UTF8
Идентификатор кодека/Информация : UTF-8 Plain Text
Язык : Russian
Default : Нет
Forced : Нет
Текст #3
Идентификатор : 10
Формат : UTF-8
Идентификатор кодека : S_TEXT/UTF8
Идентификатор кодека/Информация : UTF-8 Plain Text
Язык : English
Default : Нет
Forced : Нет
Текст #4
Идентификатор : 11
Формат : UTF-8
Идентификатор кодека : S_TEXT/UTF8
Идентификатор кодека/Информация : UTF-8 Plain Text
Заголовок : SDH
Язык : English
Default : Нет
Forced : Нет
Меню
00:00:00.000 : en:Program Start
00:00:32.824 : en:'The Gospel Truth'
00:02:28.690 : en:Festivities on Mt. Olympus
00:05:16.566 : en:Hades
00:07:55.391 : en:The Fates Reveal the Future to Hades
00:10:59.617 : en:Hercules Is Kidnapped
00:14:23.195 : en:Jerk-Ules
00:18:28.649 : en:'Go the Distance'
00:20:12.628 : en:Hercules Sets Out for the Temple of Zeus
00:21:01.468 : en:The Search for Philoctetes
00:25:29.986 : en:'Call Me Phil'
00:28:21.324 : en:'One Last Hope'
00:32:08.927 : en:A Damsel in Distress
00:35:20.743 : en:Megara
00:39:12.308 : en:The Big Olive - Thebes
00:44:26.246 : en:The Battle with the Hydra
00:48:29.156 : en:'Zero to Hero'
00:51:32.547 : en:Hades' Plan on the Verge of Disaster
00:53:47.390 : en:Progress Report to Zeus
00:55:20.650 : en:At the Villa
00:57:49.632 : en:The End of a Great Day
01:01:18.341 : en:'I Won't Say (I'm in Love)'
01:03:47.615 : en:Herc's Weakness
01:07:44.977 : en:Hades' Dirty Deal
01:10:27.890 : en:Hades Releases the Titans
01:15:17.513 : en:Inspiration From Phil
01:17:08.457 : en:Hercules Heads for Mt. Olympus
01:19:13.331 : en:The Fates Cut the Thread
01:20:55.100 : en:Hercules Makes a Deal with Hades
01:23:44.477 : en:Reunion on Mt. Olympus
01:26:01.239 : en:'A Star Is Born'
01:27:03.176 : en:End Credits

Знаете ли Вы, что...

Фраза Фила после спасения Мэг от Кентавра «Next time, don`t let your guard down because of a pair of big goo-goo eyes», в оригинале звучала так: «Next time, don`t let your guard down because of a pair of big, blue eyes». Однако когда сцена была в цвете, выяснилось, что глаза Мэг пурпурные.
В начале картины, можно заметить Нарцисса в качестве бога. Однако, на самом деле, он был простым смертным.
Аид, выступающий в роли злодея, более напоминает христианского дьявола, чем Греческого бога подземного мира, который, на самом деле, не причинял никому зла, правя загробным миром. По фильму, это темпераментно-горячий, импульсивный делец, ненавидящий свою работу и мечтающий сбросить Зевса и его окружение с Олимпа. Изначально, Аид задумывался медлительным и угрожающим, но Джеймс Вудс, озвучивающий его, сделал всё на свой лад.
Геркулес не является сыном Зевса и Геры. В Мифологии, он сын Зевса и смертной женщины. За это Гера разгневалась и наслала на Геракла множество испытаний, чтобы погубить его. Однако, оригинальная идея мало подходила для картины. В мультфильме, он является сыном Зевса и Геры. Алкмена и её муж, Амфитрион появляются в Диснеевской версии в качестве приёмных родителей.
Когда Геркулес входит в дом Фила, он ударяется головой о мачту Арго. Фил просит его быть поосторожнее. В мифологии, мачта Арго убила Ясона.
Во время сцены позирования Геркулеса художнику на нем надета львиная шкура. Когда Геркулес сбрасывает ее, видно, что у льва шрам над левым глазом. Совсем как у Шрама в Короле-Льве.
-

Скриншоты:


--
[Профиль] [ЛС]
Показать сообщения:    

Текущее время: Сегодня 14:44

Часовой пояс: GMT



Вы не можете начинать темы
Вы не можете отвечать на сообщения
Вы не можете редактировать свои сообщения
Вы не можете удалять свои сообщения
Вы не можете голосовать в опросах
Вы не можете прикреплять файлы к сообщениям
Вы не можете скачивать файлы