Геракл / Hercules (Бретт Рэтнер / Brett Ratner) [2014, США, боевик, приключения, BDRip-AVC] [Extended Cut] Dub (+ VO Есарев) + Original (Eng) + Subs

 
Автор Сообщение

TorrentFilm ®

Пол:

Стаж: 2 года

Сообщений: 7741



Награды: Нет

Торрент-статистика

Создавать темы 28-Дек-2014 00:30

[Цитировать]

Геракл / Hercules
«Множество врагов. Двенадцать подвигов. Один герой»
- Страна: США | Flynn Picture Company, Metro-Goldwyn-Mayer (MGM), Paramount Pictures, Radical Studios
Жанр: боевик, приключения
Год выпуска: 2014
Продолжительность: 01:41:35 час.
Перевод : Профессиональный (полное дублирование) + вставки Д.Есарева на Extended-эпизоды
Субтитры: Русские (полные, форсированные), английские (полные, SDH, SDh-Colored)
Оригинальная аудиодорожка: Английская
Навигация по главам: Присутствует (12 глав)
Режиссер: Бретт Рэтнер / Brett Ratner
В ролях: Дуэйн Джонсон (Hercules), Иэн МакШейн (Amphiaraus), Джон Хёрт (Lord Cotys), Руфус Сьюэлл (Autolycus), Аксель Хенни (Tydeus), Ингрид Больсё Бердаль (Atalanta), Рис Ричи (Iolaus), Джозеф Файнс (King Eurystheus), Тобиас Зантельман (Rhesus), Питер Муллан (Sitacles)
Описание: Более тысячи лет назад измученная душа скиталась по Земле, полубог, получеловек — Геракл — могучий сын царя богов Зевса, совершив все 12 подвигов, потерял семью и теперь находит утешение только в кровавых битвах.
За эти годы он собирает вокруг себя шестерых таких же потерянных воинов, единственным смыслом жизни для которых стали сражения и присутствие смертельной опасности. Эти мужчины и женщина никогда не задают вопрос, где, почему или с кем они идут сражаться; только, сколько им заплатят. Зная это, фракийский царь Котис нанимает этих воинов, чтобы они обучили его солдат и сделали из них самую сильную и великую армию всех времен.

Качество: BDRip-AVC => Сэмпл | исх. Геракл / Hercules (2014) [Extended Cut] 1080p BD-Remux - HDCLUB
Формат видео: MKV
Видео: 1152x480p (2.40:1), 23,976 fps, H.264 ~3 977 kbps avg, 0.293 bit/pixel
Аудио #1: 48 kHz, AC3, 3/2 (L,C,R,l,r) + LFE ch, ~448.00 kbps avg | Профессиональный (полное дублирование) + вставки Д.Есарева на Extended-эпизоды
Аудио #2: 48 kHz, AC3, 3/2 (L,C,R,l,r) + LFE ch, ~448.00 kbps avg | Оригинал (английский)
Формат субтитров: softsub (SRT)

MediaInfo | log x264log x264

raw [info]: 1152x480p 1:1 @ 24000/1001 fps (cfr)
x264 [info]: using SAR=1/1
x264 [info]: using cpu capabilities: MMX2 SSE2Fast SSSE3 SSE4.2 AVX
x264 [info]: profile High, level 4.1
x264 [info]: cabac=1 ref=13 deblock=1:-3:-1 analyse=0x3:0x133 me=umh subme=11 psy=1 fade_compensate=0.00 psy_rd=1.10:0.07 mixed_ref=1 me_range=32 chroma_me=1 trellis=2 8x8dct=1 cqm=0 deadzone=21,11 fast_pskip=0 chroma_qp_offset=-3 threads=6 lookahead_threads=1 sliced_threads=0 nr=0 decimate=1 interlaced=0 bluray_compat=0 constrained_intra=0 fgo=0 bframes=12 b_pyramid=2 b_adapt=2 b_bias=0 direct=1 weightb=1 open_gop=0 weightp=2 keyint=250 keyint_min=23 scenecut=40 intra_refresh=0 rc_lookahead=40 rc=crf mbtree=0 crf=17.3000 qcomp=0.65 qpmin=0 qpmax=69 qpstep=4 vbv_maxrate=50000 vbv_bufsize=62500 crf_max=0.0 nal_hrd=none filler=0 ip_ratio=1.40 pb_ratio=1.30 aq=3:0.85
x264 [info]: frame I:1376 Avg QP:15.77 size:101597
x264 [info]: frame P:34031 Avg QP:17.51 size: 39357
x264 [info]: frame B:110745 Avg QP:20.15 size: 14004
x264 [info]: consecutive B-frames: 2.5% 3.3% 10.6% 30.1% 18.5% 23.9% 4.7% 2.0% 2.0% 0.5% 1.4% 0.2% 0.3%
x264 [info]: mb I I16..4: 8.5% 69.1% 22.4%
x264 [info]: mb P I16..4: 1.2% 18.3% 2.5% P16..4: 25.0% 30.7% 14.5% 3.3% 0.5% skip: 4.0%
x264 [info]: mb B I16..4: 0.2% 2.4% 0.3% B16..8: 33.0% 23.7% 5.0% direct: 7.7% skip:27.7% L0:41.0% L1:41.6% BI:17.4%
x264 [info]: 8x8 transform intra:81.3% inter:56.7%
x264 [info]: coded y,uvDC,uvAC intra: 91.4% 94.3% 82.7% inter: 33.6% 31.2% 8.4%
x264 [info]: i16 v,h,dc,p: 40% 9% 9% 42%
x264 [info]: i8 v,h,dc,ddl,ddr,vr,hd,vl,hu: 9% 8% 9% 9% 13% 13% 13% 13% 14%
x264 [info]: i4 v,h,dc,ddl,ddr,vr,hd,vl,hu: 9% 7% 6% 9% 15% 15% 14% 12% 13%
x264 [info]: i8c dc,h,v,p: 47% 18% 17% 17%
x264 [info]: Weighted P-Frames: Y:10.7% UV:8.2%
x264 [info]: ref P L0: 46.7% 13.0% 15.7% 6.2% 4.7% 3.2% 2.8% 1.6% 1.5% 1.2% 1.1% 0.9% 1.0% 0.3% 0.0%
x264 [info]: ref B L0: 74.4% 10.8% 5.4% 2.8% 1.8% 1.4% 1.1% 0.7% 0.6% 0.5% 0.3% 0.2%
x264 [info]: ref B L1: 93.1% 6.9%
x264 [info]: kb/s:3976.59
encoded 146152 frames, 3.22 fps, 3976.59 kb/s
General
Unique ID : 182601836162449279834007415274316075394 (0x895FD59C52726545882B44393CAD9182)
Complete name : Hercules.Extended.Cut.2014.BDRip-AVC.Rus.Eng.Subs.by.zOJIOtOi.mkv
Format : Matroska
Format version : Version 4 / Version 2
File size : 3.46 GiB
Duration : 1h 41mn
Overall bit rate : 4 876 Kbps
Encoded date : UTC 2014-12-22 05:57:40
Writing application : mkvmerge v7.0.0 ('Where We Going') 64bit built on Jun 9 2014 15:16:27
Writing library : libebml v1.3.0 + libmatroska v1.4.1
DURATION : 01:33:43.997000000
NUMBER_OF_FRAMES : 1158
NUMBER_OF_BYTES : 42063
_STATISTICS_WRITING_APP : mkvmerge v7.0.0 ('Where We Going') 64bit built on Jun 9 2014 15:16:27
_STATISTICS_WRITING_DATE_UTC : 2014-12-22 05:57:40
_STATISTICS_TAGS : BPS DURATION NUMBER_OF_FRAMES NUMBER_OF_BYTES
Attachment : Yes
Video
ID : 1
Format : AVC
Format/Info : Advanced Video Codec
Format profile : High@L4.1
Format settings, CABAC : Yes
Format settings, ReFrames : 13 frames
Codec ID : V_MPEG4/ISO/AVC
Duration : 1h 41mn
Bit rate : 3 883 Kbps
Width : 1 152 pixels
Height : 480 pixels
Display aspect ratio : 2.40:1
Frame rate mode : Constant
Frame rate : 23.976 fps
Color space : YUV
Chroma subsampling : 4:2:0
Bit depth : 8 bits
Scan type : Progressive
Bits/(Pixel*Frame) : 0.293
Stream size : 2.76 GiB (80%)
Title : tRuAVC | by zOJIOtOi
Writing library : x264 core 142 r2453kMod ea0ca51
Encoding settings : cabac=1 / ref=13 / deblock=1:-3:-1 / analyse=0x3:0x133 / me=umh / subme=11 / psy=1 / fade_compensate=0.00 / psy_rd=1.10:0.07 / mixed_ref=1 / me_range=32 / chroma_me=1 / trellis=2 / 8x8dct=1 / cqm=0 / deadzone=21,11 / fast_pskip=0 / chroma_qp_offset=-3 / threads=6 / lookahead_threads=1 / sliced_threads=0 / nr=0 / decimate=1 / interlaced=0 / bluray_compat=0 / constrained_intra=0 / fgo=0 / bframes=12 / b_pyramid=2 / b_adapt=2 / b_bias=0 / direct=1 / weightb=1 / open_gop=0 / weightp=2 / keyint=250 / keyint_min=23 / scenecut=40 / intra_refresh=0 / rc_lookahead=40 / rc=crf / mbtree=0 / crf=17.3000 / qcomp=0.65 / qpmin=0 / qpmax=69 / qpstep=4 / vbv_maxrate=50000 / vbv_bufsize=62500 / crf_max=0.0 / nal_hrd=none / filler=0 / ip_ratio=1.40 / pb_ratio=1.30 / aq=3:0.85
Language : English
Default : Yes
Forced : No
DURATION : 01:41:35.757000000
NUMBER_OF_FRAMES : 146152
NUMBER_OF_BYTES : 3030039459
_STATISTICS_WRITING_APP : mkvmerge v7.0.0 ('Where We Going') 64bit built on Jun 9 2014 15:16:27
_STATISTICS_WRITING_DATE_UTC : 2014-12-22 05:57:40
_STATISTICS_TAGS : BPS DURATION NUMBER_OF_FRAMES NUMBER_OF_BYTES
Color primaries : BT.709
Transfer characteristics : BT.709
Matrix coefficients : BT.709
Audio #1
ID : 2
Format : AC-3
Format/Info : Audio Coding 3
Mode extension : CM (complete main)
Format settings, Endianness : Big
Codec ID : A_AC3
Duration : 1h 41mn
Bit rate mode : Constant
Bit rate : 448 Kbps
Channel(s) : 6 channels
Channel positions : Front: L C R, Side: L R, LFE
Sampling rate : 48.0 KHz
Bit depth : 16 bits
Compression mode : Lossy
Stream size : 326 MiB (9%)
Title : Профессиональный (полное дублирование) + вставки Д.Есарева на Extended-эпизоды | DD 5.1 @ 448 kbps
Language : Russian
Default : Yes
Forced : No
Audio #2
ID : 3
Format : AC-3
Format/Info : Audio Coding 3
Mode extension : CM (complete main)
Format settings, Endianness : Big
Codec ID : A_AC3
Duration : 1h 41mn
Bit rate mode : Constant
Bit rate : 448 Kbps
Channel(s) : 6 channels
Channel positions : Front: L C R, Side: L R, LFE
Sampling rate : 48.0 KHz
Bit depth : 16 bits
Compression mode : Lossy
Stream size : 326 MiB (9%)
Title : Оригинал (английский) | DD 5.1 @ 448 kbps
Language : English
Default : No
Forced : No
Text #1
ID : 4
Format : UTF-8
Codec ID : S_TEXT/UTF8
Codec ID/Info : UTF-8 Plain Text
Title : Full
Language : Russian
Default : No
Forced : No
Text #2
ID : 5
Format : UTF-8
Codec ID : S_TEXT/UTF8
Codec ID/Info : UTF-8 Plain Text
Title : Forced
Language : Russian
Default : Yes
Forced : No
Text #3
ID : 6
Format : UTF-8
Codec ID : S_TEXT/UTF8
Codec ID/Info : UTF-8 Plain Text
Title : Full
Language : English
Default : No
Forced : No
Text #4
ID : 7
Format : UTF-8
Codec ID : S_TEXT/UTF8
Codec ID/Info : UTF-8 Plain Text
Title : SDH
Language : English
Default : No
Forced : No
Text #5
ID : 8
Format : UTF-8
Codec ID : S_TEXT/UTF8
Codec ID/Info : UTF-8 Plain Text
Title : SDH-Colored
Language : English
Default : No
Forced : No
Menu
00:00:00.000 : en:Chapter 01
00:08:10.782 : en:Chapter 02
00:14:15.813 : en:Chapter 03
00:23:38.250 : en:Chapter 04
00:31:23.757 : en:Chapter 05
00:41:12.136 : en:Chapter 06
00:51:34.341 : en:Chapter 07
00:57:31.281 : en:Chapter 08
01:05:57.620 : en:Chapter 09
01:16:07.855 : en:Chapter 10
00:24:28.897 : en:Chapter 11
01:34:24.701 : en:Chapter 12

Source vs rip by zOJIOtOi

source

rip by zOJIOtOi

Скриншоты



Релиз групп:
[Профиль] [ЛС]
Кто просматривает тему:

Форум Тема Автор Размер
Фильмы (HD DVD, Blu-ray и BDRemux) Геракл / Hercules (2014) BDRemux 1080р | Extended Cut | iTunes sergej644 21.53 GB
Фильмы 2014 года Геракл / Hercules (2014) BDRip 720p от ExKinoRay | Theatrical | Есарев Белочка 4.07 GB
Фильмы (HD DVD, Blu-ray и BDRemux) Геракл / Hercules (2014) Blu-Ray BOSS 33.46 GB
Фильмы 2014 года Геракл / Hercules (Бретт Рэтнер / Brett Ratner) [2014, США, боевик, приключения, BDRip] [Extended Cut] Dub (BD RUS + вставки Д.Есарева на Extended-эпизоды) + Original Eng + subs (full pack) TorrentFilm 2.18 GB
Фильмы 2014 года Геракл / Hercules (Бретт Рэтнер / Brett Ratner) [2014, США, Боевик, приключения, BDRip] [Расширенная версия / Extended Cut] Dub TorrentFilm 1.46 GB
Фильмы 2014 года Геракл / Hercules (Бретт Рэтнер / Brett Ratner) [2014, США, Боевик, приключения, BDRip] [Театральная версия / Theatrical Cut] Dub TorrentFilm 1.46 GB
Фильмы 2014 года Геракл / Hercules (Бретт Рэтнер / Brett Ratner) [2014, США, Боевик, приключения, фэнтези , BDRip-AVC] DUB + Sub Rus, Eng + Original Eng TorrentFilm 2.18 GB
Фильмы 2014 года Геракл / Hercules (Бретт Рэтнер / Brett Ratner) [2014, США, Боевик, приключения, фэнтези, BDRip-AVC] [Theatrical] DUB + Sub Rus, Eng + Original Eng TorrentFilm 3.42 GB
Показать сообщения:    

Текущее время: Сегодня 16:57

Часовой пояс: GMT



Вы не можете начинать темы
Вы не можете отвечать на сообщения
Вы не можете редактировать свои сообщения
Вы не можете удалять свои сообщения
Вы не можете голосовать в опросах
Вы не можете прикреплять файлы к сообщениям
Вы не можете скачивать файлы