Геракл / Hercules (Бретт Рэтнер / Brett Ratner) [2014, США, боевик, приключения, BDRip] [Extended Cut] Dub (BD RUS + вставки Д.Есарева на Extended-эпизоды) + Original Eng + subs (full pack)

 
Автор Сообщение

TorrentFilm ®

Пол:

Стаж: 2 года

Сообщений: 7741



Награды: Нет

Торрент-статистика

Создавать темы 22-Дек-2014 02:01

[Цитировать]

Геракл / Hercules [Extended Cut]- Год выпуска: 2014
Страна: США
Жанр: боевик, приключения
Продолжительность: 01:41:35
Перевод: Профессиональный (полное дублирование) CEE + вставки Д.Есарева на Extended-эпизоды
+ Оригинальная звуковая дорожка
Субтитры: Русские (полные, форсированные), английские (полные, SDH) (внешние srt*)-Режиссер: Бретт Рэтнер / Brett Ratner
В ролях: Дуэйн Джонсон, Аксель Хенни, Ирина Шейк, Джон Хёрт, Иэн МакШейн, Йен Уайт, Джозеф Файнс, Ингрид Больсё Бердаль, Руфус Сьюэлл, Джо Андерсон
О фильме: Более тысячи лет назад измученная душа скиталась по Земле, полубог, получеловек - Геракл - могучий сын царя богов Зевса, совершив все 12 подвигов, потерял семью и теперь находит утешение только в кровавых битвах.
За эти годы он собирает вокруг себя шестерых таких же потерянных воинов, единственным смыслом жизни для которых стали сражения и присутствие смертельной опасности. Эти мужчины и женщина никогда не задают вопрос, где, почему или с кем они идут сражаться; только, сколько им заплатят. Зная это, фракийский царь Котис нанимает этих воинов, чтобы они обучили его солдат и сделали из них самую сильную и великую армию всех времен.
Геракл начинает сомневаться в намерениях Котиса, когда тот выводит свою армию и жертвами ее нападения становятся невинные люди соседних поселений. И тогда он принимает решение остановить обезумевшего от власти царя и его армию от похода на Грецию, а, быть может, и на сам Олимп...-Релиз:
Автор: kingsize87
Качество: BDRip (источник: ExKinoray / BD-Remux / 1080p)
Формат: AVI
Видео: 720x304 (2.37:1), 23.976 fps, XviD build 65 ~2174 kbps avg, 0.41 bit/pixel
Аудио #1: 48 kHz, AC3 Dolby Digital, 3/2 (L,C,R,l,r) + LFE ch, ~448.00 kbps avg rus
Аудио #2: 48 kHz, AC3 Dolby Digital, 3/2 (L,C,R,l,r) + LFE ch, ~448.00 kbps avg eng
Размер: 2235.94 Mb (1/2 DVD-R)
Скачать: Семпл-

Кадры из фильма


-

Mi


Формат : AVI
Формат/Информация : Audio Video Interleave
Профиль формата : OpenDML
Размер файла : 2,18 Гбайт
Продолжительность : 1 ч. 41 м.
Общий поток : 3077 Кбит/сек
Название фильма : Геракл / Hercules [Extended Cut] (2014) BDRip
Режиссёр : kingsize87
Программа кодирования : VirtualDubMod 1.5.10.2 (build 2540/release)
Правообладатель : HQCLUB
Примечание : 12.12.2014
Видео
Идентификатор : 0
Формат : MPEG-4 Visual
Профиль формата : Advanced Simple@L5
Параметр BVOP формата : 1
Параметр QPel формата : Нет
Параметр GMC формата : Без точки перехода
Параметр матрицы формата : Выборочная
Идентификатор кодека : XVID
Идентификатор кодека/Подсказка : XviD
Продолжительность : 1 ч. 41 м.
Битрейт : 2163 Кбит/сек
Ширина : 720 пикселей
Высота : 304 пикселя
Соотношение сторон : 2,35:1
Частота кадров : 23,976 кадра/сек
Цветовое пространство : YUV
Субдискретизация насыщенности : 4:2:0
Битовая глубина : 8 бит
Тип развёртки : Прогрессивная
Метод сжатия : С потерями
Бит/(Пиксели*Кадры) : 0.412
Размер потока : 1,54 Гбайт (70%)
Библиотека кодирования : XviD 65
Аудио #1
Идентификатор : 1
Формат : AC-3
Формат/Информация : Audio Coding 3
Расширение режима : CM (complete main)
Параметр Endianness формата : Big
Идентификатор кодека : 2000
Продолжительность : 1 ч. 41 м.
Вид битрейта : Постоянный
Битрейт : 448 Кбит/сек
Каналы : 6 каналов
Расположение каналов : Front: L C R, Side: L R, LFE
Частота : 48,0 КГц
Битовая глубина : 16 бит
Метод сжатия : С потерями
Размер потока : 326 Мбайт (15%)
Выравнивание : Разделение по промежуткам
Продолжительность промежутка : 42 мс. (1,00 видеокадр)
Время предзагрузки промежутка : 500 мс.
Аудио #2
Идентификатор : 2
Формат : AC-3
Формат/Информация : Audio Coding 3
Расширение режима : CM (complete main)
Параметр Endianness формата : Big
Идентификатор кодека : 2000
Продолжительность : 1 ч. 41 м.
Вид битрейта : Постоянный
Битрейт : 448 Кбит/сек
Каналы : 6 каналов
Расположение каналов : Front: L C R, Side: L R, LFE
Частота : 48,0 КГц
Битовая глубина : 16 бит
Метод сжатия : С потерями
Размер потока : 326 Мбайт (15%)
Выравнивание : Разделение по промежуткам
Продолжительность промежутка : 42 мс. (1,00 видеокадр)
Время предзагрузки промежутка : 500 мс.

-
* Extended-версия не выходила в дубляже, потому на Extended-участках вставки перевода Д.Есарева.
* За работу над дорожкой со вставками Д.Есарева сердечная благодарность angelica_k.
* Форсированные русские субтитры гулявшие по сети с кривыми таймингами, поправил лично.
* При использовании дорожки или субтитров прошу ссылаться на первоисточник.
[Профиль] [ЛС]
Кто просматривает тему:

Форум Тема Автор Размер
Фильмы (HD DVD, Blu-ray и BDRemux) Геракл / Hercules (2014) BDRemux 1080р | Extended Cut | iTunes sergej644 21.53 GB
Фильмы 2014 года Геракл / Hercules (2014) BDRip 720p от ExKinoRay | Theatrical | Есарев Белочка 4.07 GB
Фильмы (HD DVD, Blu-ray и BDRemux) Геракл / Hercules (2014) Blu-Ray BOSS 33.46 GB
Фильмы 2014 года Геракл / Hercules (Бретт Рэтнер / Brett Ratner) [2014, США, боевик, приключения, BDRip-AVC] [Extended Cut] Dub (+ VO Есарев) + Original (Eng) + Subs TorrentFilm 3.46 GB
Фильмы 2014 года Геракл / Hercules (Бретт Рэтнер / Brett Ratner) [2014, США, Боевик, приключения, BDRip] [Расширенная версия / Extended Cut] Dub TorrentFilm 1.46 GB
Фильмы 2014 года Геракл / Hercules (Бретт Рэтнер / Brett Ratner) [2014, США, Боевик, приключения, BDRip] [Театральная версия / Theatrical Cut] Dub TorrentFilm 1.46 GB
Фильмы 2014 года Геракл / Hercules (Бретт Рэтнер / Brett Ratner) [2014, США, Боевик, приключения, фэнтези , BDRip-AVC] DUB + Sub Rus, Eng + Original Eng TorrentFilm 2.18 GB
Фильмы 2014 года Геракл / Hercules (Бретт Рэтнер / Brett Ratner) [2014, США, Боевик, приключения, фэнтези, BDRip-AVC] [Theatrical] DUB + Sub Rus, Eng + Original Eng TorrentFilm 3.42 GB
Показать сообщения:    

Текущее время: Сегодня 03:24

Часовой пояс: GMT



Вы не можете начинать темы
Вы не можете отвечать на сообщения
Вы не можете редактировать свои сообщения
Вы не можете удалять свои сообщения
Вы не можете голосовать в опросах
Вы не можете прикреплять файлы к сообщениям
Вы не можете скачивать файлы