Геракл / Hercules (Бретт Рэтнер / Brett Ratner) [2014, США, Боевик, фентези, HDRip] [Theatrical Cut] Dub

 
Автор Сообщение

TorrentFilm ®

Пол:

Стаж: 2 года

Сообщений: 7741



Награды: Нет

Торрент-статистика

Создавать темы 22-Дек-2014 02:00

[Цитировать]

Геракл / Hercules / [Theatrical Cut]
Страна: США
Жанр: Боевик, фентези
Год выпуска: 2014
Продолжительность: 01:38:04-Перевод: Профессиональный (дублированный)
Cубтитры: нет
Режиссер: Бретт Рэтнер / Brett Ratner-В ролях: Дуэйн Джонсон, Иэн МакШейн, Джон Хёрт, Руфус Сьюэлл, Аксель Хенни, Ингрид Больсё Бердаль, Рис Ричи, Джозеф Файнс, Тобиас Зантельман, Питер Муллан, Ирина Шейк.-Описание: Более тысячи лет назад измученная душа скиталась по Земле, полубог, получеловек — Геракл — могучий сын царя богов Зевса, совершив все 12 подвигов, потерял семью и теперь находит утешение только в кровавых битвах.
За эти годы он собирает вокруг себя шестерых таких же потерянных воинов, единственным смыслом жизни для которых стали сражения и присутствие смертельной опасности. Эти мужчины и женщина никогда не задают вопрос, где, почему или с кем они идут сражаться; только, сколько им заплатят. Зная это, фракийский царь Котис нанимает этих воинов, чтобы они обучили его солдат и сделали из них самую сильную и великую армию всех времен.-
Сэмпл: http://multi-up.com/1017876-Качество видео: HDRip
Формат видео: AVI
Видео: 688x288 (2,35:1), 23 fps, XviD 73 build ~928 kbps avg, 0.195 bit/pixel
Аудио: 48 kHz, MPEG Layer 3, 2 ch, ~128.00 kbps avg

MediaInfo

Общее
Полное имя : C:\Users\Пользователь\Documents\фильмы\Hercules [Theatrical Cut]_HDRip.avi
Формат : AVI
Формат/Информация : Audio Video Interleave
Размер файла : 748 Мбайт
Продолжительность : 1 ч. 38 м.
Общий поток : 1066 Кбит/сек
Программа кодирования : VirtualDubMod 1.5.10.2 (build 2540/release)
Библиотека кодирования : VirtualDubMod build 2540/release
Видео
Идентификатор : 0
Формат : MPEG-4 Visual
Профиль формата : Advanced Simple@L5
Параметр BVOP формата : 1
Параметр QPel формата : Нет
Параметр GMC формата : Без точки перехода
Параметр матрицы формата : Выборочная
Идентификатор кодека : XVID
Идентификатор кодека/Подсказка : XviD
Продолжительность : 1 ч. 38 м.
Битрейт : 928 Кбит/сек
Ширина : 688 пикселей
Высота : 288 пикселей
Соотношение сторон : 2,40:1
Частота кадров : 23,976 кадра/сек
Цветовое пространство : YUV
Субдискретизация насыщенности : 4:2:0
Битовая глубина : 8 бит
Тип развёртки : Прогрессивная
Метод сжатия : С потерями
Бит/(Пиксели*Кадры) : 0.195
Размер потока : 651 Мбайт (87%)
Библиотека кодирования : XviD 73
Аудио
Идентификатор : 1
Формат : MPEG Audio
Версия формата : Version 1
Профиль формата : Layer 3
Идентификатор кодека : 55
Идентификатор кодека/Подсказка : MP3
Продолжительность : 1 ч. 38 м.
Вид битрейта : Постоянный
Битрейт : 128 Кбит/сек
Каналы : 2 канала
Частота : 48,0 КГц
Метод сжатия : С потерями
Размер потока : 89,8 Мбайт (12%)
Выравнивание : Соединение по промежуткам
Продолжительность промежутка : 42 мс. (1,00 видеокадр)
Время предзагрузки промежутка : 504 мс.
Библиотека кодирования : LAME3.99r
Настройки программы : -m s -V 4 -q 2 -lowpass 17 -b 128

Скриншот c названием фильма

Скриншоты

[Профиль] [ЛС]
Кто просматривает тему:

Форум Тема Автор Размер
Фильмы (HD DVD, Blu-ray и BDRemux) Геракл / Hercules (2014) BDRemux 1080р | Extended Cut | iTunes sergej644 21.53 GB
Фильмы 2014 года Геракл / Hercules (2014) BDRip 720p от ExKinoRay | Theatrical | Есарев Белочка 4.07 GB
Фильмы (HD DVD, Blu-ray и BDRemux) Геракл / Hercules (2014) Blu-Ray BOSS 33.46 GB
Фильмы 2014 года Геракл / Hercules (Бретт Рэтнер / Brett Ratner) [2014, США, боевик, приключения, BDRip-AVC] [Extended Cut] Dub (+ VO Есарев) + Original (Eng) + Subs TorrentFilm 3.46 GB
Фильмы 2014 года Геракл / Hercules (Бретт Рэтнер / Brett Ratner) [2014, США, боевик, приключения, BDRip] [Extended Cut] Dub (BD RUS + вставки Д.Есарева на Extended-эпизоды) + Original Eng + subs (full pack) TorrentFilm 2.18 GB
Фильмы 2014 года Геракл / Hercules (Бретт Рэтнер / Brett Ratner) [2014, США, Боевик, приключения, BDRip] [Расширенная версия / Extended Cut] Dub TorrentFilm 1.46 GB
Фильмы 2014 года Геракл / Hercules (Бретт Рэтнер / Brett Ratner) [2014, США, Боевик, приключения, BDRip] [Театральная версия / Theatrical Cut] Dub TorrentFilm 1.46 GB
Фильмы 2014 года Геракл / Hercules (Бретт Рэтнер / Brett Ratner) [2014, США, Боевик, приключения, фэнтези , BDRip-AVC] DUB + Sub Rus, Eng + Original Eng TorrentFilm 2.18 GB
Показать сообщения:    

Текущее время: Сегодня 20:11

Часовой пояс: GMT



Вы не можете начинать темы
Вы не можете отвечать на сообщения
Вы не можете редактировать свои сообщения
Вы не можете удалять свои сообщения
Вы не можете голосовать в опросах
Вы не можете прикреплять файлы к сообщениям
Вы не можете скачивать файлы