Геракл: Начало легенды в 3Д / The Legend of Hercules 3D (Ренни Харлин / Renny Harlin) [2014, Фэнтези, боевик, BDRip-AVC] Half SideBySide / Горизонтальная анаморфная стереопара [Чистый Звук]

 
Автор Сообщение

TorrentFilm ®

Пол:

Стаж: 2 года

Сообщений: 7741



Награды: Нет

Торрент-статистика

Создавать темы 01-Янв-2016 00:24

[Цитировать]

Гepaкл: Haчaлo лeгeнды в 3Д / Тhе Lеgеnd оf Неrсulеs 3D
Год выпуска: 2014
Страна: США, Болгария
Жанр: Фэнтези, боевик
Продолжительность: 01:26:44
Перевод: Профессиональный (дублированный) [Чистый Звук]
Режиссер: Ренни Харлин
В ролях: Келлан Латс, Джая Уайсс, Скотт Эдкинс, Роксанна МакКи, Лайам Гэрриган, Лиам МакИнтайр, Раде Шербеджия, Джонатон Шек, Люк Ньюберри, Кеннет Крэнэм
Описание: 1200 г. до н. э. Древняя Греция. Прекрасная царица Алкмена попала под чары грозного бога Олимпа — Зевса и родила ему сына Геракла. При рождении ему было предсказано стать величайшим воином, который будет властвовать над народами и принесет мир и процветание своей стране. Но пока Геракл ничего не знает о своем предназначении. Он вырос прекрасным и сильным юношей. Он мечтает о любви принцессы Крита, Гебы, которая обещана в жены его брату. Когда Геракл узнает о своей великой миссии, он должен выбрать: сбежать со своей любовью или исполнить свое предназначение.
Формат 3D: Half SideBySide / Горизонтальная анаморфная стереопара
Порядок ракурсов: левый ракурс первый
Качество: BDRip
Контейнер: MKV
Видео кодек: x264
Аудио кодек: AC3
Видео: MPEG-4 AVC, 9310 Кбит/сек, 1920х1080, 23.976 кадр/с
Аудио #1: Русский, AC3, 192 Кбит/сек, 2ch, 48,0 КГц, 16 бит [Дубляж - Чистый Звук]
Аудио #2: Английский, AC3, 384 Кбит/сек, 6ch, 48,0 КГц, 16 бит [Original]
Аудио #3: Английский, AC3, 224 Кбит/сек, 2ch, 48,0 КГц, 16 бит [Комментарии]

Скриншоты

MediaInfo

Общее
Уникальный идентификатор : 225787713685280007072007138577845827233 (0xA9DD21C349F18BC3B674148AF733B6A1)
Полное имя : D:\Download\The Legend Of Hercules 3D 2014 BDRip 1080p halfSbS [3d-tracker.ru].mkv
Формат : Matroska
Версия формата : Version 2
Размер файла : 7,11 Гбайт
Продолжительность : 1 ч. 38 м.
Общий поток : 10,3 Мбит/сек
Название фильма : 3d-tracker.ru
Дата кодирования : UTC 2014-04-07 15:22:31
Программа кодирования : mkvmerge v4.0.0 ('The Stars were mine') сборка от Jun 6 2010 16:18:42
Библиотека кодирования : libebml v1.0.0 + libmatroska v1.0.0
Attachment : Yes / Yes
Видео
Идентификатор : 1
Формат : AVC
Формат/Информация : Advanced Video Codec
Профиль формата : High@L4.1
Параметр CABAC формата : Да
Параметр ReFrames формата : 4 кадра
Идентификатор кодека : V_MPEG4/ISO/AVC
Продолжительность : 1 ч. 38 м.
Битрейт : 9310 Кбит/сек
Ширина : 1920 пикселей
Высота : 1080 пикселей
Соотношение сторон : 16:9
Режим частоты кадров : Постоянный
Частота кадров : 23,976 кадра/сек
Цветовое пространство : YUV
Субдискретизация насыщенности : 4:2:0
Битовая глубина : 8 бит
Тип развёртки : Прогрессивная
Бит/(Пиксели*Кадры) : 0.187
Размер потока : 6,42 Гбайт (90%)
Заголовок : 3d-tracker.ru
Библиотека кодирования : x264 core 142 r2389 956c8d8
Настройки программы : cabac=1 / ref=4 / deblock=1:-3:-3 / analyse=0x3:0x113 / me=umh / subme=10 / psy=1 / psy_rd=1.00:0.00 / mixed_ref=1 / me_range=32 / chroma_me=1 / trellis=2 / 8x8dct=1 / cqm=0 / deadzone=21,11 / fast_pskip=0 / chroma_qp_offset=-4 / threads=6 / lookahead_threads=1 / sliced_threads=0 / nr=0 / decimate=0 / interlaced=0 / bluray_compat=0 / constrained_intra=0 / bframes=6 / b_pyramid=2 / b_adapt=2 / b_bias=0 / direct=3 / weightb=1 / open_gop=0 / weightp=2 / keyint=250 / keyint_min=23 / scenecut=40 / intra_refresh=0 / rc=crf / mbtree=0 / crf=18.0 / qcomp=0.75 / qpmin=0 / qpmax=69 / qpstep=4 / frame-packing=3 / ip_ratio=1.30 / pb_ratio=1.30 / aq=2:0.85
Язык : English
Default : Нет
Forced : Нет
Аудио #1
Идентификатор : 2
Формат : AC-3
Формат/Информация : Audio Coding 3
Расширение режима : CM (complete main)
Параметр Endianness формата : Big
Идентификатор кодека : A_AC3
Продолжительность : 1 ч. 38 м.
Вид битрейта : Постоянный
Битрейт : 192 Кбит/сек
Каналы : 2 канала
Расположение каналов : Front: L R
Частота : 48,0 КГц
Битовая глубина : 16 бит
Метод сжатия : С потерями
Размер потока : 135 Мбайт (2%)
Заголовок : 3d-tracker.ru
Язык : Russian
Default : Да
Forced : Нет
Аудио #2
Идентификатор : 3
Формат : AC-3
Формат/Информация : Audio Coding 3
Расширение режима : CM (complete main)
Параметр Endianness формата : Big
Идентификатор кодека : A_AC3
Продолжительность : 1 ч. 38 м.
Вид битрейта : Постоянный
Битрейт : 384 Кбит/сек
Каналы : 6 каналов
Расположение каналов : Front: L C R, Side: L R, LFE
Частота : 48,0 КГц
Битовая глубина : 16 бит
Метод сжатия : С потерями
Размер потока : 271 Мбайт (4%)
Заголовок : 3d-tracker.ru
Язык : English
Default : Нет
Forced : Нет
Аудио #3
Идентификатор : 4
Формат : AC-3
Формат/Информация : Audio Coding 3
Расширение режима : CM (complete main)
Параметр Endianness формата : Big
Идентификатор кодека : A_AC3
Продолжительность : 1 ч. 38 м.
Вид битрейта : Постоянный
Битрейт : 224 Кбит/сек
Каналы : 2 канала
Расположение каналов : Front: L R
Частота : 48,0 КГц
Битовая глубина : 16 бит
Метод сжатия : С потерями
Размер потока : 158 Мбайт (2%)
Заголовок : 3d-tracker.ru
Язык : English
Default : Нет
Forced : Нет
Меню
00:00:00.000 : :1 - 0:00:00
00:14:07.221 : :2 - 0:14:07
00:36:13.546 : :3 - 0:36:13
00:58:32.675 : :4 - 0:58:32
01:18:37.629 : :5 - 1:18:37
01:29:12.805 : :6 - 1:29:12
8.04.2014 Раздача обновлена. Звук с CamRip заменён на Чистый Звук.
Желающие, скачайте заново торрент-файл.
[Профиль] [ЛС]
Кто просматривает тему:

Форум Тема Автор Размер
Фильмы (HD DVD, Blu-ray и BDRemux) Геракл / Hercules (2014) BDRemux 1080р | Extended Cut | iTunes sergej644 21.53 GB
Фильмы 2014 года Геракл / Hercules (2014) BDRip 720p от ExKinoRay | Theatrical | Есарев Белочка 4.07 GB
Фильмы (HD DVD, Blu-ray и BDRemux) Геракл / Hercules (2014) Blu-Ray BOSS 33.46 GB
Фильмы 2014 года Геракл / Hercules (Бретт Рэтнер / Brett Ratner) [2014, США, боевик, приключения, BDRip-AVC] [Extended Cut] Dub (+ VO Есарев) + Original (Eng) + Subs TorrentFilm 3.46 GB
Фильмы 2014 года Геракл / Hercules (Бретт Рэтнер / Brett Ratner) [2014, США, боевик, приключения, BDRip] [Extended Cut] Dub (BD RUS + вставки Д.Есарева на Extended-эпизоды) + Original Eng + subs (full pack) TorrentFilm 2.18 GB
Фильмы 2014 года Геракл / Hercules (Бретт Рэтнер / Brett Ratner) [2014, США, Боевик, приключения, BDRip] [Расширенная версия / Extended Cut] Dub TorrentFilm 1.46 GB
Фильмы 2014 года Геракл / Hercules (Бретт Рэтнер / Brett Ratner) [2014, США, Боевик, приключения, BDRip] [Театральная версия / Theatrical Cut] Dub TorrentFilm 1.46 GB
Фильмы 2014 года Геракл / Hercules (Бретт Рэтнер / Brett Ratner) [2014, США, Боевик, приключения, фэнтези , BDRip-AVC] DUB + Sub Rus, Eng + Original Eng TorrentFilm 2.18 GB
Показать сообщения:    

Текущее время: Сегодня 16:25

Часовой пояс: GMT



Вы не можете начинать темы
Вы не можете отвечать на сообщения
Вы не можете редактировать свои сообщения
Вы не можете удалять свои сообщения
Вы не можете голосовать в опросах
Вы не можете прикреплять файлы к сообщениям
Вы не можете скачивать файлы