Гепард / Cheetah (1989) WEB-DL 1080p | P

 
Author Message

BOSS ®

Gender:

Longevity: 4 years 7 months

Posts: 14097

Location: ODESSA



: 22 ()

Top Keeper 4 (1) Mega Seeder 1 (1) Top Seeder 5 (1)
Торрент-статистика

Post 14-Mar-2019 19:48

[Quote]

Информация о фильме
Название: Гепард
Оригинальное название: Cheetah
Год выпуска: 1989
Жанр: Приключения, семейный
Режиссер: Джефф Блит
В ролях: Кит Куган, Люси Дикинс, Коллин Мотупи, Тимоти Лэндфилд, Брион Гормэн, Пол Онсонго
О фильме: Семья американских ученых отправляется на полгода в Кению. Пока родители занимаются своими исследованиями, дети берут на воспитание детеныша гепарда. Гепард растёт, и брат с сестрой осознают: приёмыша надо выпустить на природу, чтобы он научился охотиться и быть свободным. Однако гепарду не удаётся обрести свободу — он попадает в ловушку к браконьерам, которые собираются выставить его на бегах против гончих псов. Узнав об этой беде, дети и их новый друг, молодой пастух-африканец, отправляются на спасение гепарда.

Выпущено: США, Silver Screen Partners III, Walt Disney Pictures
Продолжительность: 01:23:34
Перевод: Профессиональный многоголосый | 1 канал
Файл
Качество: WEB-DL 1080p - AMZN
Контейнер: MKV
Видео: MPEG4 AVC Video, H264, 1920x1080 (16:9), 23.976 fps, 13.2 Mbps
Аудио 1: Russian: AC3, 2 ch, 192 kbps, 16 bits, 48.0 KHz - MVO, 1 канал
Аудио 2: English: E-AC3, 2 ch, 224 kbps, 16 bits, 48.0 KHz - Оригинал
Субтитры: Английские

Скриншоты


MediaInfo

General
Unique ID : 179625574956596385152069072288076476725 (0x8722A09A93E32F7496E121A3309F3135)
Complete name : J:Cheetah 1989 WEB-DL 1080p.AMZN-SiGMA.mkv
Format : Matroska
Format version : Version 4 / Version 2
File size : 8.13 GiB
Duration : 1 h 23 min
Overall bit rate mode : Variable
Overall bit rate : 13.9 Mb/s
Encoded date : UTC 2019-03-14 05:58:47
Writing application : mkvmerge v6.1.0 ('Old Devil') built on Mar 2 2013 14:32:37
Writing library : libebml v1.3.0 + libmatroska v1.4.0
Video
ID : 1
Format : AVC
Format/Info : Advanced Video Codec
Format profile : High@L4
Format settings : CABAC / 4 Ref Frames
Format settings, CABAC : Yes
Format settings, ReFrames : 4 frames
Codec ID : V_MPEG4/ISO/AVC
Duration : 1 h 23 min
Bit rate mode : Variable
Bit rate : 13.2 Mb/s
Maximum bit rate : 15.0 Mb/s
Width : 1 920 pixels
Height : 1 080 pixels
Display aspect ratio : 16:9
Frame rate mode : Constant
Frame rate : 23.976 (24000/1001) FPS
Color space : YUV
Chroma subsampling : 4:2:0
Bit depth : 8 bits
Scan type : Progressive
Bits/(Pixel*Frame) : 0.266
Stream size : 7.73 GiB (95%)
Writing library : x264 core 148 r2623 d5b2374
Encoding settings : cabac=1 / ref=4 / deblock=1:-1:-1 / analyse=0x3:0x133 / me=umh / subme=9 / psy=1 / psy_rd=1.00:0.15 / mixed_ref=1 / me_range=24 / chroma_me=1 / trellis=2 / 8x8dct=1 / cqm=0 / deadzone=21,11 / fast_pskip=1 / chroma_qp_offset=-3 / threads=34 / lookahead_threads=5 / sliced_threads=0 / nr=150 / decimate=1 / interlaced=0 / bluray_compat=0 / constrained_intra=0 / bframes=8 / b_pyramid=2 / b_adapt=2 / b_bias=0 / direct=3 / weightb=1 / open_gop=0 / weightp=2 / keyint=120 / keyint_min=61 / scenecut=0 / intra_refresh=0 / rc_lookahead=120 / rc=crf / mbtree=1 / crf=18.0 / qcomp=0.60 / qpmin=0 / qpmax=69 / qpstep=4 / vbv_maxrate=15000 / vbv_bufsize=31250 / crf_max=0.0 / nal_hrd=vbr / filler=0 / ip_ratio=1.40 / aq=3:1.00
Language : English
Default : Yes
Forced : No
Color range : Limited
Color primaries : BT.709
Transfer characteristics : BT.709
Matrix coefficients : BT.709
Audio #1
ID : 2
Format : AC-3
Format/Info : Audio Coding 3
Codec ID : A_AC3
Duration : 1 h 23 min
Bit rate mode : Constant
Bit rate : 192 kb/s
Channel(s) : 2 channels
Channel positions : Front: L R
Sampling rate : 48.0 kHz
Frame rate : 31.250 FPS (1536 SPF)
Bit depth : 16 bits
Compression mode : Lossy
Stream size : 115 MiB (1%)
Language : Russian
Service kind : Complete Main
Default : Yes
Forced : No
Audio #2
ID : 3
Format : E-AC-3
Format/Info : Enhanced Audio Coding 3
Codec ID : A_EAC3
Duration : 1 h 23 min
Bit rate mode : Constant
Bit rate : 224 kb/s
Channel(s) : 2 channels
Channel positions : Front: L R
Sampling rate : 48.0 kHz
Frame rate : 187.500 FPS (256 SPF)
Compression mode : Lossy
Stream size : 134 MiB (2%)
Language : English
Service kind : Complete Main
Default : No
Forced : No
Text
ID : 4
Format : UTF-8
Codec ID : S_TEXT/UTF8
Codec ID/Info : UTF-8 Plain Text
Language : English
Default : No
Forced : No
[Profile] [PM]
Display posts from previous:    

The time now is: Today 07:17

All times are GMT



You cannot post new topics in this forum
You cannot reply to topics in this forum
You cannot edit your posts in this forum
You cannot delete your posts in this forum
You cannot vote in polls in this forum
You cannot attach files in this forum
You cannot download files in this forum