Гепард - борьба за признание / Cheetah - Race to Rule (Ян Лампен / Jan Lampen) [2013, Документальный, HDTVRip-AVC]

 
Автор Сообщение

reversefile ®

Пол:

Стаж: 4 года 5 месяцев

Сообщений: 842

Откуда: ReverseFile.org



Награды: Нет

Торрент-статистика

Создавать темы 11-Авг-2014 06:20

[Цитировать]

Гепард - борьба за признание
Cheetah - Race to Rule
- Год выпуска: 2013
Страна: США
Жанр: Документальный
Продолжительность: 00:43:34
Перевод: Профессиональный (дублированный) АРК·ТВ
Русские субтитры: нет-Режиссер: Ян Лампен / Jan Lampen
Описание: Это подлинный рассказ о гепарде, рождённом в заповеднике Линьянти. Он самый маленький в помёте. Ему придётся с боем добывать себе каждую крупицу материнского внимания.-Автор рипа: Leo.pard
Исходник:HDTV 1080i-Kачество: HDTVRip-AVC
Формат: MKV
Видео: x264, 880x496 (16:9), 1861 Kbps, 25 fps
Аудио: AC3, 384 Kbps, 48 KHz, 6 channels
Сэмпл: http://multi-up.com/974816

MediaInfo

GeneralUnique ID : 211153929995738279560326005959688166471 (0x9EDAC485B7F5EA17B1A6545552FF9C47)Complete name : D:\Gepard-borba.za.priznanie.2013.HDTVRip-AVC.mkvFormat : MatroskaFormat version : Version 2File size : 700 MiBDuration : 43mn 34sOverall bit rate : 2 246 KbpsEncoded date : UTC 2014-05-18 23:46:57Writing application : mkvmerge v6.1.0 ('Old Devil') built on Mar 4 2013 09:10:42Writing library : libebml v1.3.0 + libmatroska v1.4.0
VideoID : 1Format : AVCFormat/Info : Advanced Video CodecFormat profile : High@L4.1Format settings, CABAC : YesFormat settings, ReFrames : 10 framesCodec ID : V_MPEG4/ISO/AVCDuration : 43mn 34sBit rate : 1 861 KbpsWidth : 880 pixelsHeight : 496 pixelsDisplay aspect ratio : 16:9Frame rate : 25.000 fpsColor space : YUVChroma subsampling : 4:2:0Bit depth : 8 bitsScan type : ProgressiveBits/(Pixel*Frame) : 0.171Stream size : 566 MiB (81%)Writing library : x264 core 138 r2358 9e941d1Encoding settings : cabac=1 / ref=10 / deblock=1:-2:-1 / analyse=0x3:0x113 / me=umh / subme=11 / psy=1 / psy_rd=1.00:0.00 / mixed_ref=1 / me_range=48 / chroma_me=1 / trellis=2 / 8x8dct=1 / cqm=0 / deadzone=21,11 / fast_pskip=0 / chroma_qp_offset=-2 / threads=6 / lookahead_threads=1 / sliced_threads=0 / nr=0 / decimate=1 / interlaced=0 / bluray_compat=0 / constrained_intra=0 / bframes=15 / b_pyramid=2 / b_adapt=2 / b_bias=0 / direct=3 / weightb=1 / open_gop=0 / weightp=2 / keyint=250 / keyint_min=25 / scenecut=40 / intra_refresh=0 / rc_lookahead=80 / rc=2pass / mbtree=1 / bitrate=1861 / ratetol=1.0 / qcomp=0.60 / qpmin=0 / qpmax=69 / qpstep=4 / cplxblur=20.0 / qblur=0.5 / ip_ratio=1.40 / aq=2:1.00Default : YesForced : No
AudioID : 2Format : AC-3Format/Info : Audio Coding 3Mode extension : CM (complete main)Format settings, Endianness : BigCodec ID : A_AC3Duration : 43mn 34sBit rate mode : ConstantBit rate : 384 KbpsChannel(s) : 6 channelsChannel positions : Front: L C R, Side: L R, LFESampling rate : 48.0 KHzBit depth : 16 bitsCompression mode : LossyStream size : 120 MiB (17%)Default : YesForced : No

Скриншоты


--
[Профиль] [ЛС]
Кто просматривает тему:

Показать сообщения:    

Текущее время: Сегодня 02:30

Часовой пояс: GMT



Вы не можете начинать темы
Вы не можете отвечать на сообщения
Вы не можете редактировать свои сообщения
Вы не можете удалять свои сообщения
Вы не можете голосовать в опросах
Вы не можете прикреплять файлы к сообщениям
Вы не можете скачивать файлы