Георгий Жженов. Вся моя жизнь - сплошная ошибка (Юлия Ермолина) [2015, Документальный, HDTV 1080i]

 
Автор Сообщение

TorrentFilm ®

Пол:

Стаж: 2 года

Сообщений: 7741



Награды: Нет

Торрент-статистика

Создавать темы 31-Мар-2015 00:02

[Цитировать]

Георгий Жженов. Вся моя жизнь - сплошная ошибка
Год выпуска: 2015
Страна: Россия
Студия: Останкино
Жанр: Документальный
Продолжительность: 00:51:15
Перевод: Не требуется
Русские субтитры: нет
Режиссер: Юлия Ермолина
Описание: "Я не кланялся судьбе" - это главный принцип жизни Георгия Жженова, которому он оставался верен до последних дней. Этот человек не любил говорить о прошлом, предпочитая жить настоящим. А его прошлое - это настоящее испытание, выдержать которое смог бы далеко не каждый. В 17 лет лагерей, в которых Жженов оказался по ложному обвинению. Лучшие годы, вычеркнутые из жизни. Чудовищная несправедливость. Все это пришлось испытать актеру. Но в сорок лет этот удивительный человек начинает жизнь заново и добивается всего: признания, успеха и популярности. Четыре женщины стали спутницами нелегкой жизни Георгия Степановича. По-разному сложилась их судьба. Порой - трагически. Но каждая из женщин искренне любила этого человека. В фильме принимает участие Марина Жженова, дочь Георгия Степановича от третьего брака. Марина покажет уникальный документ - дневник матери. Именно в этом дневнике описана история любви и расставания Ирины и Георгия Жженовых. Марина покажет места в Петербурге, где жили ее родители после возвращения из ссылки. Побываем в театре на Литейном. Именно там драматично закончилась история любви Георгия и Ирины.
Доп. информация: Релиз -

Рип чистый. Без посторонних надписей. Выкладывается как есть.
Качество: HDTV 1080i
Контейнер: TS
Видео кодек: AVC
Аудио кодек: MP2, AC3
Видео: 1920x1080 (16:9) 25.000 fps ~ 10.1 Mbps, 0.195 bit/pixel
Аудио 1: MPEG Audio 48000Hz stereo 192 Кбит/сек
Аудио 2: AC3, 6 channels, 48000Hz, 384 Кбит/сек

Скриншоты


MI

GeneralID : 1 (0x1)Complete name : H:\ВЫКЛАДКА\Март\Георгий Жженов. Вся моя жизнь - сплошная ошибка (2015, Документальный, HDTV 1080i) (MYDIMKA).tsFormat : MPEG-TSFile size : 4.30 GiBDuration : 51mn 15sOverall bit rate mode : VariableOverall bit rate : 12.0 Mbps
VideoID : 1603 (0x643)Menu ID : 603 (0x25B)Format : AVCFormat/Info : Advanced Video CodecFormat profile : High@L4.0Format settings, CABAC : YesFormat settings, ReFrames : 3 framesCodec ID : 27Duration : 51mn 15sBit rate : 10.8 MbpsWidth : 1 920 pixelsHeight : 1 080 pixelsDisplay aspect ratio : 16:9Frame rate : 25.000 fpsStandard : ComponentColor space : YUVChroma subsampling : 4:2:0Bit depth : 8 bitsScan type : InterlacedScan order : Top Field FirstBits/(Pixel*Frame) : 0.209Stream size : 3.88 GiB (90%)Color primaries : BT.709Transfer characteristics : BT.709Matrix coefficients : BT.709
Audio #1ID : 2603 (0xA2B)Menu ID : 603 (0x25B)Format : AC-3Format/Info : Audio Coding 3Mode extension : CM (complete main)Format settings, Endianness : BigCodec ID : 6Duration : 51mn 15sBit rate mode : ConstantBit rate : 384 KbpsChannel(s) : 6 channelsChannel positions : Front: L C R, Side: L R, LFESampling rate : 48.0 KHzBit depth : 16 bitsCompression mode : LossyStream size : 141 MiB (3%)Language : Russian
Audio #2ID : 2604 (0xA2C)Menu ID : 603 (0x25B)Format : MPEG AudioFormat version : Version 1Format profile : Layer 2Codec ID : 3Duration : 51mn 15sBit rate mode : ConstantBit rate : 192 KbpsChannel(s) : 2 channelsSampling rate : 48.0 KHzCompression mode : LossyStream size : 70.4 MiB (2%)Language : Russian
[Профиль] [ЛС]
Показать сообщения:    

Текущее время: Сегодня 02:17

Часовой пояс: GMT



Вы не можете начинать темы
Вы не можете отвечать на сообщения
Вы не можете редактировать свои сообщения
Вы не можете удалять свои сообщения
Вы не можете голосовать в опросах
Вы не можете прикреплять файлы к сообщениям
Вы не можете скачивать файлы