Географ глобус пропил (2013) BDRip 1080p

 
Автор Сообщение

sergej644 ®

Пол:

Стаж: 4 года 11 месяцев

Сообщений: 6035

Откуда: Soviet Union



Награды: Нет

Торрент-статистика

Создавать темы 28-Янв-2015 18:47

[Цитировать]

Информация о фильме
Название: Географ глобус пропил
Год выхода: 2013
Жанр: драма
Режиссер: Александр Велединский
В ролях: Константин Хабенский, Анфиса Черных, Елена Лядова, Александр Робак, Евгения Брик, Анна Уколова, Агриппина Стеклова, Евгения Крегжде, Максим Лагашкин, Анастасия Золотко
О фильме: Молодой биолог Виктор Служкин от безденежья идет работать учителем географии в обычную пермскую школу. Он борется, а потом и дружит с учениками, конфликтует с завучем, ведет десятиклассников в поход — сплавляться по реке. Еще он пьет с друзьями вино, пытается ужиться с женой и водит в детский сад маленькую дочку. Он просто живет…

Выпущено: Красная стрела
Продолжительность: 02:04:52
Перевод: Оригинал (лицензия)
Файл
Кодек: x264
Качество: BDRip (источник: Blu-ray Disc)
Видео: 1920x804 (2,40:1), 24 fps, 8440 kbps
Аудио: AC-3, 6 ch, 448 kbps
Скачать: сэмплСкриншоты

MI

Общее
Уникальный идентификатор : 218168927303331827751136813950770536039 (0xA421CE97BCD6FC4AA57FDB91F83ADE67)
Полное имя : Geograf.globus.propil.2013.BDRip.1080p.Rus.mkv
Формат : Matroska
Версия формата : Version 2
Размер файла : 7,75 Гбайт
Продолжительность : 2 ч. 4 м.
Общий поток : 8889 Кбит/сек
Название фильма : Географ глобус пропил (2013)
Дата кодирования : UTC 2014-03-28 15:44:03
Программа кодирования : mkvmerge v5.8.0 ('No Sleep / Pillow') built on Sep 2 2012 15:37:04
Библиотека кодирования : libebml v1.2.3 + libmatroska v1.3.0
Видео
Идентификатор : 1
Формат : AVC
Формат/Информация : Advanced Video Codec
Профиль формата : High@L4.1
Параметр CABAC формата : Да
Параметр ReFrames формата : 5 кадров
Идентификатор кодека : V_MPEG4/ISO/AVC
Продолжительность : 2 ч. 4 м.
Битрейт : 8444 Кбит/сек
Ширина : 1920 пикселей
Высота : 804 пикселя
Соотношение сторон : 2,40:1
Режим частоты кадров : Постоянный
Частота кадров : 24,000 кадра/сек
Цветовое пространство : YUV
Субдискретизация насыщенности : 4:2:0
Битовая глубина : 8 бит
Тип развёртки : Прогрессивная
Бит/(Пиксели*Кадры) : 0.228
Размер потока : 7,21 Гбайт (93%)
Заголовок : Release by AlexKa
Библиотека кодирования : x264 core 142 r2409 d6b4e63
Настройки программы : cabac=1 / ref=5 / deblock=1:-3:-3 / analyse=0x3:0x133 / me=umh / subme=11 / psy=1 / psy_rd=1.00:0.00 / mixed_ref=1 / me_range=32 / chroma_me=1 / trellis=2 / 8x8dct=1 / cqm=0 / deadzone=21,11 / fast_pskip=0 / chroma_qp_offset=-2 / threads=12 / lookahead_threads=2 / sliced_threads=0 / nr=0 / decimate=0 / interlaced=0 / bluray_compat=0 / constrained_intra=0 / bframes=7 / b_pyramid=2 / b_adapt=2 / b_bias=0 / direct=3 / weightb=1 / open_gop=0 / weightp=2 / keyint=240 / keyint_min=24 / scenecut=40 / intra_refresh=0 / rc=2pass / mbtree=0 / bitrate=8444 / ratetol=1.0 / qcomp=0.60 / qpmin=0 / qpmax=69 / qpstep=4 / cplxblur=20.0 / qblur=0.5 / ip_ratio=1.40 / pb_ratio=1.30 / aq=1:0.70
Язык : Russian
Аудио
Идентификатор : 2
Формат : AC-3
Формат/Информация : Audio Coding 3
Расширение режима : CM (complete main)
Параметр Endianness формата : Big
Идентификатор кодека : A_AC3
Продолжительность : 2 ч. 4 м.
Вид битрейта : Постоянный
Битрейт : 448 Кбит/сек
Каналы : 6 каналов
Расположение каналов : Front: L C R, Side: L R, LFE
Частота : 48,0 КГц
Битовая глубина : 16 бит
Метод сжатия : С потерями
Размер потока : 400 Мбайт (5%)
Заголовок : Rus
Язык : Russian
Меню
00:00:00.000 : :Chapter 01
00:12:18.708 : :Chapter 02
00:18:58.291 : :Chapter 03
00:27:08.541 : :Chapter 04
00:35:54.125 : :Chapter 05
00:45:32.458 : :Chapter 06
00:53:58.333 : :Chapter 07
01:02:12.333 : :Chapter 08
01:12:47.416 : :Chapter 09
01:20:55.041 : :Chapter 10
01:29:32.583 : :Chapter 11
01:36:47.916 : :Chapter 12
01:44:25.291 : :Chapter 13
01:52:39.250 : :Chapter 14
01:57:48.916 : :Chapter 15
02:04:51.583 : :Chapter 16

x264

x264 [info]: frame I:1125 Avg QP:14.91 size:203366
x264 [info]: frame P:41035 Avg QP:17.36 size: 78821
x264 [info]: frame B:137639 Avg QP:19.30 size: 32259
x264 [info]: consecutive B-frames: 2.2% 3.8% 7.7% 28.8% 15.8% 26.6% 7.5% 7.6%
[Профиль] [ЛС]
Показать сообщения:    

Текущее время: Сегодня 09:56

Часовой пояс: GMT



Вы не можете начинать темы
Вы не можете отвечать на сообщения
Вы не можете редактировать свои сообщения
Вы не можете удалять свои сообщения
Вы не можете голосовать в опросах
Вы не можете прикреплять файлы к сообщениям
Вы не можете скачивать файлы