Генсбур. Любовь хулигана / Gainsbourg (Жоанн Сфар / Joann Sfar) [2010, США, Франция, драма, музыка, биография, HDRip] Dub

 
Автор Сообщение

TorrentFilm ®

Пол:

Стаж: 2 года

Сообщений: 7741



Награды: Нет

Торрент-статистика

Создавать темы 04-Сен-2015 00:10

[Цитировать]

Генсбур. Любовь хулигана / Gainsbourg
Страна: США, Франция
Жанр: драма, музыка, биография
Год выпуска: 2010
Продолжительность: 02:15:04
Перевод: Профессиональный (дублированный)
Cубтитры: нет
Режиссер: Жоанн Сфар / Joann Sfar
В ролях: Эрик Эльмоснино (Серж Генсбур), Летиция Каста (Брижитт Бардо), Люси Гордон, Даг Джонс, Анна Муглалис, Милен Джампаной, Сара Форестье, Кейси Моттет Кляйн, Рэзван Василеску
Голос: Сергей Шнуров
Описание: Фильм повествует о легендарном французском певце и поэте Серже Генсбуре. По настоянию Джейн Биркин, бывшей жены Генсбура, режиссёр Жоанн Сфар обозначил жанр фильма как фантазию (сказку). Это объясняется большой долей художественного вымысла при отражении реальных жизненных вех главного героя (роман с Брижит Бардо, сотрудничество с Франс Галль и т. д.). Другие особенности сюжета: наличие мистики (альтер-эго Генсбура — Рожа, эпизод с Ж. Греко), анахронизмы, огромное количество песен Сержа Генсбура (исполняемых, по большей части, самими актерами).
Доп. информация:
IMDb
Рецензия на фильм

Награды

Премия "Сезар" (2010):
Лучший актер (Эрик Элмоснино)
Лучший дебют (Жоан Сфар)
Лучший звукооператор
Номинация на "Сезар" (2010):
Лучший фильм
Лучшая актриса второго плана (Летиция Каста)
Лучший оператор
Лучший монтаж
Лучший художник
HDRip от Scarabey
Сэмпл: http://multi-up.com/1064697
Качество видео: HDRip
Формат видео: AVI
Видео: 720x304 (2.37:1), 24.000 fps, XviD build 50 ~1337 kbps avg, 0.25 bit/pixel
Аудио: 48 kHz, AC3 Dolby Digital, 2/0 (L,R) ch, ~192.00 kbps avg

MediaInfo

Формат : AVI
Формат/Информация : Audio Video Interleave
Размер файла : 1,45 Гбайт
Продолжительность : 2 ч. 15 м.
Общий поток : 1539 Кбит/сек
Программа кодирования : VirtualDubMod 1.5.10.2 (build 2540/release)
Библиотека кодирования : VirtualDubMod build 2540/release
Видео
Идентификатор : 0
Формат : MPEG-4 Visual
Профиль формата : Advanced Simple@L5
Параметр BVOP формата : 1
Параметр QPel формата : Нет
Параметр GMC формата : Без точки перехода
Параметр матрицы формата : Выборочная
Идентификатор кодека : XVID
Идентификатор кодека/Подсказка : XviD
Продолжительность : 2 ч. 15 м.
Битрейт : 1338 Кбит/сек
Ширина : 720 пикселей
Высота : 304 пикселя
Соотношение сторон : 2,35:1
Частота кадров : 24,000 кадра/сек
Цветовое пространство : YUV
Субдискретизация насыщенности : 4:2:0
Битовая глубина : 8 бит
Тип развёртки : Прогрессивная
Метод сжатия : С потерями
Бит/(Пиксели*Кадры) : 0.255
Размер потока : 1,26 Гбайт (87%)
Библиотека кодирования : XviD 1.2.1 (UTC 2008-12-04)
Аудио
Идентификатор : 1
Формат : AC-3
Формат/Информация : Audio Coding 3
Расширение режима : CM (complete main)
Параметр Endianness формата : Big
Идентификатор кодека : 2000
Продолжительность : 2 ч. 15 м.
Вид битрейта : Постоянный
Битрейт : 192 Кбит/сек
Каналы : 2 канала
Расположение каналов : Front: L R
Частота : 48,0 КГц
Битовая глубина : 16 бит
Метод сжатия : С потерями
Размер потока : 186 Мбайт (12%)
Выравнивание : Разделение по промежуткам
Продолжительность промежутка : 42 мс. (1,00 видеокадр)
Время предзагрузки промежутка : 500 мс.

Скриншот c названием фильма

Скриншоты







[Профиль] [ЛС]

Создавать темы 12-Июн-2016 07:53 (спустя 9 месяцев 8 дней)

Топик был перенесен из форума Фильмы 2011 года в форум Фильмы 2010 года
Russian Mafia
 
Кто просматривает тему:

Показать сообщения:    

Текущее время: Сегодня 20:22

Часовой пояс: GMT



Вы не можете начинать темы
Вы не можете отвечать на сообщения
Вы не можете редактировать свои сообщения
Вы не можете удалять свои сообщения
Вы не можете голосовать в опросах
Вы не можете прикреплять файлы к сообщениям
Вы не можете скачивать файлы