Гений Великобритании: Ученые, которые изменили мир / Genius of Britain: The Scientists World [серии 1-5 из 5] (Кристофер Сайкс, Джонатан Руд) [2010 г., Документальный, познавательный, история, SATRip]

 
Автор Сообщение

skorpionN ®

Пол:

Стаж: 1 год 8 месяцев

Сообщений: 585



Награды: 4 (Подробнее)

Mega Seeder 3 (Количество: 1) Mega Seeder 1 (Количество: 1) Top Releaser 2 (Количество: 1)
Торрент-статистика

Создавать темы 29-Мар-2015 16:54

[Цитировать]

Гений Великобритании: Ученые, которые изменили мир / Genius of Britain: The Scientists World [серии 1-5 из 5]
Год выпуска: 2010
Страна: Великобритания
Жанр: Документальный, познавательный, история
Продолжительность: 5x~00:47:49
Перевод: Профессиональный (двухголосый) - Видеофильм ТВ
Дополнительная информация: русская аудиодорожка позаимствована из SatRip канал Наука 2.0
Режиссер: Кристофер Сайкс, Джонатан Руд
В ролях: Ведущие:
физик Джим Аль-Халили / Jim Al-Khalili, эволюционист Ричард Докинз / Richard Dawkins, изобретатель Джеймс Дайсон / James Dyson, астрофизик Стивен Хокинг / Stephen Hawking, натуралист Дэвид Аттенборо / David Attenborough, физик Кэти Сайкс / Kathy Sykes
Описание: Великобритания, может, и маленький остров, но ее великие ученые и изобретатели в буквальном смысле создали современный мир: паровой двигатель, компьютеры и интернет, теория эволюции… В новом документальном фильме ведущие ученые Великобритании рассказывают о людях, стоящих за этими открытиями.
Список серий:
01. Первая пятёрка / The First Five
Первая серия фильма расскажет о событиях трехсотлетней давности, когда небольшая группа друзей, коллег и конкурентов бросила вызов всему, что было известно мировой науке тот момент.
02. Комната полная блестящих умов / A Roomful of Brilliant Minds
Вторая часть фильма "Гений" расскажет о том, что спровоцировало индустриальную революцию в Великобритании, о том, как появился паровой двигатель, навсегда изменивший современный мир, кто из церковнослужителей открыл воздух и газировку, а также поведает удивительную историю одного хирурга, анатома и похитителя человеческих тел.
03. Да будет свет / The Lights Come On
Третий фильм серии обращается к "титанам" науки 19 века. Фильм расскажет о людях, которые создали железную дорогу, изобрели электричество и подарили миру самую потрясающую идею человечества - эволюцию.
04. Выход из тьмы / Out of the Darkness
Четвертый фильм серии расскажет об ужасах войны, которые, тем не менее, приводят к великим открытиям. В этом фильме вы увидите истории нескольких ученых и инженеров, которые помогали Британии во Второй мировой войне. Мы пользуемся их изобретениями и по сей день. Как был изобретен реактивный двигатель, радар, и истинная история открытия пенициллина...
05. Задавая главные вопросы / Asking Big Questions
Финальная часть серии рассказывает о невероятных открытиях последних пятидесяти лет и показывает, куда, по мнению лучших умов нашего времени, мы направляемся. Как и благодаря чему была открыта структура ДНК? Космический лифт и углеродные нанотрубки. Есть ли жизнь на других планетах?
Качество: SATRip
Формат: AVI
Видео кодек: XviD
Аудио кодек: AC3
Видео: 720x400 25fps ~1947 Kbps
Аудио: AC3 2ch, 48kHz, 192 kbps

Скриншоты


MediaInfo:

Format : AVI
Format/Info : Audio Video Interleave
File size : 734 MiB
Duration : 47mn 48s
Overall bit rate : 2 147 Kbps
Writing application : TMPGEnc Video Mastering Works 5 Version. 5.0.6.38
Writing library : TMPGEnc Video Mastering Works 5 Version. 5.0.6.38
Video
ID : 0
Format : MPEG-4 Visual
Format profile : Advanced Simple@L5
Format settings, BVOP : 2
Format settings, QPel : No
Format settings, GMC : No warppoints
Format settings, Matrix : Default (H.263)
Muxing mode : Packed bitstream
Codec ID : XVID
Codec ID/Hint : XviD
Duration : 47mn 48s
Bit rate : 1 947 Kbps
Width : 720 pixels
Height : 400 pixels
Display aspect ratio : 16:9
Frame rate : 25.000 fps
Color space : YUV
Chroma subsampling : 4:2:0
Bit depth : 8 bits
Scan type : Progressive
Compression mode : Lossy
Bits/(Pixel*Frame) : 0.270
Stream size : 666 MiB (91%)
Writing library : XviD 73
Audio
ID : 1
Format : AC-3
Format/Info : Audio Coding 3
Mode extension : CM (complete main)
Format settings, Endianness : Big
Codec ID : 2000
Duration : 47mn 48s
Bit rate mode : Constant
Bit rate : 192 Kbps
Channel(s) : 2 channels
Channel positions : Front: L R
Sampling rate : 48.0 KHz
Bit depth : 16 bits
Compression mode : Lossy
Stream size : 65.7 MiB (9%)
Alignment : Aligned on interleaves
Interleave, duration : 240 ms (6.00 video frames)
Interleave, preload duration : 224 ms

Внимание! Раздача ведётся путём добавления новых выпусков

Внимание! Раздача ведётся путём добавления новых выпусков; при каждом добавлении создаётся новый торрент. Чтобы начать докачку нового выпуска, пользователям необходимо сделать следующее:
(1) остановить скачивание,
(2) удалить старый торрент у себя из клиента (старые серии удалять не надо),
(3) скачать новый торрент и запустить его у себя в клиенте вместо старого, при этом указать клиенту путь в старую папку куда и должно происходить скачивание новых выпусков.
Ваш клиент при этом должен произвести хеширование (проверку) старой папки (если не производит сам - помогите ему сделать это). В результате он будет докачивать только те выпуски, которых у Вас ещё нет. Старые выпуски при этом не удаляются, а продолжают раздаваться!
Eсли Вы уже удалили старые выпуски, то предотвратить их повторную закачку можно, сняв галочки в соответствующих местах при запуске нового торрента. По возможности, желательно не удалять старые выпуски как можно дольше, чтобы релизёр не только продолжал раздавать старые выпуски, но и смог сконцентрироваться на новых.
Добавлено 05. Задавая главные вопросы / Asking Big Questions


Последний раз редактировалось: skorpionN (2015-04-06 06:05), всего редактировалось 1 раз
[Профиль] [ЛС]

skorpionN ®

Пол:

Стаж: 1 год 8 месяцев

Сообщений: 585



Награды: 4 (Подробнее)

Top Releaser 2 (Количество: 1) Mega Seeder 1 (Количество: 1) Mega Seeder 2 (Количество: 1)
Торрент-статистика

Создавать темы 05-Апр-2015 12:22 (спустя 6 дней)

[Цитировать]

Сериал окончен respect
[Профиль] [ЛС]
Кто просматривает тему:

Форум Тема Автор Размер
Classical (Classical) Чайковский Симфонии № 1-6/Tchaikovsky Symphonies Nos. 1-6 (Евгений Светланов) (Live in Tok - 2002, MP3, 320 kbps Magnat 604 MB
Pop (Pop)Евгений Осин - Новое и лучшее. Star Hit Звездная коллекция (2010) [FLAC|Lossless] sergej644 446 MB
Russian music (other genres) (Шансон) Жека (Евгений Григорьев) - Дискография (12 альбомов, 16 CD) - 2003-2012, MP3, 128-320 kbps Russian Mafia 2.31 GB
PBS PBS: Настоящий гений со Стивеном Хокингом / Genius by Stephen Hawking [серии 6 из 6] (Ben Bowie) [2016 г., Документальный, научно-познавательный, HDTVRip 720p] skorpionN 7.64 GB
Фильмы (DVD 5/9) «Богатырь» идёт в Марто (Евгений Брюнчугин, Сигизмунд Навроцкий) [1954, СССР, Приключения, шпионский, DVD5] TorrentFilm 2.46 GB
Документальные HD Андрей Раздобудов. "Мои любимые музыканты" / Евгений Сытник [2015, Документальный, HD, 720p, RUS] TorrentFilm 1.04 GB
История, биографии, религия и искусство Анисимов Евгений - Россия в середине восемнадцатого века. Борьба за наследие Петра [Иванова Маргарита, 2015] Magnat 668 MB
Отечественные cериалы Анна-детективъ / Сезон:1 / Серии: 1-32 из 56 (Феликс Герчиков, Евгений Семенов, Артур Румынский) [2016., Детектив, мелодрама, WEB-DLRip] Pensioner 18.74 GB
Показать сообщения:    

Текущее время: Сегодня 12:33

Часовой пояс: GMT



Вы не можете начинать темы
Вы не можете отвечать на сообщения
Вы не можете редактировать свои сообщения
Вы не можете удалять свои сообщения
Вы не можете голосовать в опросах
Вы не можете прикреплять файлы к сообщениям
Вы не можете скачивать файлы