Гензель и Гретель / Henjel gwa Geuretel (2007) BDRip 1080p | L2, L1

 
Автор Сообщение

Russian Mafia ®

Пол:

Стаж: 1 год 8 месяцев

Сообщений: 4257



Награды: 10 (Подробнее)

Top Releaser 3 (Количество: 1) Top Releaser 2 (Количество: 1) Top Releaser 4 (Количество: 1)
Торрент-статистика

Создавать темы 22-Мар-2016 09:52

[Цитировать]

Название: Гензель и Гретель
Оригинальное название: Henjel gwa Geuretel
Год выхода: 2007
Страна: Корея Южная
Студия: Barunson Film Division, CJ Entertainment, Cineclick Asia
Продолжительность: 01:56:57
Жанр: ужасы, фэнтези, триллер, драма, детектив, ...
Режиссер: Им Пхиль-Сон
В ролях: Чхон Чон Мён, Ын Вон Чэ, Шим Ын Кён, Чин Чжи Хи, Пак Хи Сун, Пак Лидия, Кён-ик Ким, Чан Ён Нам, Eun-joo Kim, Mi-Yeong Yang, ...
Перевод:
Любительский (двухголосый, закадровый) Ustas Alexis & Misa
Любительский (одноголосый, закадровый) @PD
О фильме: В этом мире, в глубине темного леса, где мы однажды можем совершенно случайно оказаться, существует одно очень необычное место. И кажется, что все сущее берет свое начало в этом тёмном густом лесу… В него совсем несложно попасть, но очень сложно выйти…

Кодек: x264
Качество: BDRip 1080p
Видео: 1916x1036 , 12000 kbps, 23,976 fps
Аудио #1: AC-3, 6 ch, 448 kbps (Rus) - DVOL Ustas Alexis & Misa
Аудио #2: AC-3, 6 ch, 448 kbps (Rus) - VO @PD
Аудио #3: DTS, 6 ch, 1509 kbps (Kor)
Субтитры: Русские, Английские

Дополнительная информация

За исходник спасибо - smirnoff_zlat

MI

x264 [info]: frame I:1050 Avg QP:20.26 size:264357
x264 [info]: frame P:31943 Avg QP:22.58 size:117015
x264 [info]: frame B:135247 Avg QP:24.95 size: 48087
x264 [info]: consecutive B-frames: 1.5% 2.2% 3.3% 11.5% 13.4% 45.9% 9.5% 2.5% 5.2% 1.5% 1.2% 1.3% 0.9%
Общее
Уникальный идентификатор : 225394259715580438057410367991052054419 (0xA9915AFC037E093BB701FCFE24DD2F93)
Полное имя : Гензель и Гретель (Henjel gwa Geuretel) [2007 BDRip 1080p.mkv
Формат : Matroska
Версия формата : Version 2
Размер файла : 11,8 Гбайт
Продолжительность : 1 ч. 56 м.
Общий поток : 14,4 Мбит/сек
Дата кодирования : UTC 2016-03-22 07:32:26
Программа кодирования : mkvmerge v4.0.0 ('The Stars were mine') сборка от Jun 6 2010 16:18:42
Библиотека кодирования : libebml v1.0.0 + libmatroska v1.0.0
Видео
Идентификатор : 1
Формат : AVC
Формат/Информация : Advanced Video Codec
Профиль формата : High@L4.1
Параметр CABAC формата : Да
Параметр ReFrames формата : 4 кадра
Идентификатор кодека : V_MPEG4/ISO/AVC
Продолжительность : 1 ч. 56 м.
Битрейт : 12,0 Мбит/сек
Ширина : 1916 пикселей
Высота : 1036 пикселей
Соотношение сторон : 1,85:1
Режим частоты кадров : Постоянный
Частота кадров : 23,976 кадра/сек
Цветовое пространство : YUV
Субдискретизация насыщенности : 4:2:0
Битовая глубина : 8 бит
Тип развёртки : Прогрессивная
Бит/(Пиксели*Кадры) : 0.252
Размер потока : 9,56 Гбайт (81%)
Библиотека кодирования : x264 core 146 r2538 121396c
Настройки программы : cabac=1 / ref=4 / deblock=1:-3:-3 / analyse=0x3:0x133 / me=umh / subme=11 / psy=1 / psy_rd=1.10:0.16 / mixed_ref=1 / me_range=32 / chroma_me=1 / trellis=2 / 8x8dct=1 / cqm=0 / deadzone=21,11 / fast_pskip=0 / chroma_qp_offset=-3 / threads=12 / lookahead_threads=2 / sliced_threads=0 / nr=0 / decimate=0 / interlaced=0 / bluray_compat=0 / constrained_intra=0 / bframes=12 / b_pyramid=2 / b_adapt=2 / b_bias=0 / direct=3 / weightb=1 / open_gop=0 / weightp=2 / keyint=240 / keyint_min=23 / scenecut=40 / intra_refresh=0 / rc_lookahead=60 / rc=2pass / mbtree=0 / bitrate=12000 / ratetol=1.0 / qcomp=0.60 / qpmin=0 / qpmax=69 / qpstep=4 / cplxblur=20.0 / qblur=0.5 / vbv_maxrate=50000 / vbv_bufsize=62500 / nal_hrd=none / filler=0 / ip_ratio=1.40 / pb_ratio=1.30 / aq=1:0.90
Язык : Korean
Default : Нет
Forced : Нет
Аудио #1
Идентификатор : 2
Формат : AC-3
Формат/Информация : Audio Coding 3
Расширение режима : CM (complete main)
Параметр Endianness формата : Big
Идентификатор кодека : A_AC3
Продолжительность : 1 ч. 56 м.
Вид битрейта : Постоянный
Битрейт : 448 Кбит/сек
Каналы : 6 каналов
Расположение каналов : Front: L C R, Side: L R, LFE
Частота : 48,0 КГц
Метод сжатия : С потерями
Размер потока : 375 Мбайт (3%)
Заголовок : DVOL Ustas Alexis & Misa
Язык : Russian
Default : Нет
Forced : Нет
Аудио #2
Идентификатор : 3
Формат : AC-3
Формат/Информация : Audio Coding 3
Расширение режима : CM (complete main)
Параметр Endianness формата : Big
Идентификатор кодека : A_AC3
Продолжительность : 1 ч. 56 м.
Вид битрейта : Постоянный
Битрейт : 448 Кбит/сек
Каналы : 6 каналов
Расположение каналов : Front: L C R, Side: L R, LFE
Частота : 48,0 КГц
Метод сжатия : С потерями
Размер потока : 375 Мбайт (3%)
Заголовок : VO @PD
Язык : Russian
Default : Нет
Forced : Нет
Аудио #3
Идентификатор : 4
Формат : DTS
Формат/Информация : Digital Theater Systems
Режим : 16
Параметр Endianness формата : Big
Идентификатор кодека : A_DTS
Продолжительность : 1 ч. 56 м.
Вид битрейта : Постоянный
Битрейт : 1509 Кбит/сек
Каналы : 6 каналов
Расположение каналов : Front: L C R, Side: L R, LFE
Частота : 48,0 КГц
Битовая глубина : 16 бит
Метод сжатия : С потерями
Размер потока : 1,23 Гбайт (10%)
Язык : Korean
Default : Нет
Forced : Нет
Текст #1
Идентификатор : 5
Формат : UTF-8
Идентификатор кодека : S_TEXT/UTF8
Идентификатор кодека/Информация : UTF-8 Plain Text
Заголовок : @PD
Язык : Russian
Default : Нет
Forced : Нет
Текст #2
Идентификатор : 6
Формат : UTF-8
Идентификатор кодека : S_TEXT/UTF8
Идентификатор кодека/Информация : UTF-8 Plain Text
Язык : English
Default : Нет
Forced : Нет

Скриншоты


[Профиль] [ЛС]
Кто просматривает тему:

Форум Тема Автор Размер
Фильмы 2015 года Гензель против Гретель / Hansel Vs. Gretel (2015) WEB-DLRip | L1 BOSS 1.37 GB
Показать сообщения:    

Текущее время: Сегодня 14:22

Часовой пояс: GMT



Вы не можете начинать темы
Вы не можете отвечать на сообщения
Вы не можете редактировать свои сообщения
Вы не можете удалять свои сообщения
Вы не можете голосовать в опросах
Вы не можете прикреплять файлы к сообщениям
Вы не можете скачивать файлы