Где это видано, где это слыхано (1973) DVDRip-AVC от New-Team

 
Автор Сообщение

sergej644 ®

Пол:

Стаж: 4 года 11 месяцев

Сообщений: 6043

Откуда: Soviet Union



Награды: Нет

Торрент-статистика

Создавать темы 06-Дек-2014 18:12

[Цитировать]

Сборник из четырех детских комедий по рассказам Виктора Драгунского о Денисе Кораблеве.- Страна: СССР
Производство: Ленфильм
Жанр: короткометражка, комедия, семейный
Год выпуска: 1973
Продолжительность: 01:27:57
Перевод: не требуется
Оригинальная аудиодорожка: русский
Cубтитры: нет
Режиссер: Марк Генин, Евгений Татарский, Валентин Горлов, Аян Шахмалиева
В ролях: Саша Михайлов, Леня Михайлов, Маргарита Сергеечева, Сережа Годунов, Клара Лучко, Олег Басилашвили, Саша Хмельницкий, Лиана Жвания, Оля Богданова, Олег Даль, Витя Татарский, Сергей Крупеников, Алексей Сироткин, Владимир Петров, Антонина Павлычева, Б. Барский, Марина Немкова, Вадик Плисов, Саша Ведерников, Илья Стулов, Наташа Веселова, Петя Мосеев, Ролан Быков, Валентина Теличкина, Николай Карамышев, Людмила Ксенофонтова...
Описание: ПОДЗОРНАЯ ТРУБА Родители Дениса Кораблева уставшие от шалостей своего сынишки. Смастерили «подзорную трубу», которая якобы им позволяет всегда наблюдать за Дениской…
ПОЖАР ВО ФЛИГЕЛЕ Шалун Денис Кораблев и его дружок Мишка Слонов в очередной раз опаздывают на урок. И причина вроде бы уважительная – мальчишки помогали ловить орла, улетевшего из живого уголка, но им, конечно, никто не верит…
ГДЕ ЭТО ВИДАНО, ГДЕ ЭТО СЛЫХАНО Дениске и Мишке поручили выступить на школьном концерте с сатирическими куплетами. Артистический дебют двух друзей не удался, но зрители все равно смеялись до слез…
КАПИТАН Денис Кораблев, веселый мальчишка, мечтающий о дальних странствиях, наконец встречается со «старым морским волком», своими дядей, капитаном дальнего плавания.- -Исходник: DVD5 R5
Тип релиза: DVDRip-AVC
Контейнер: MKV
Видео: 680->728x558 (1,296:1), 25 fps, H264 ~ 2176 kbps avg, 0.229 bit/pixel
Аудио: 48 kHz, Dolby AC3 2.0, 192 kbps

MediaInfo

Общее
Полное имя : Gde.eto.vidano,gde.eto.slykhano.1973.DVDRip-AVC_[Youtracker]_by_AVP Studio.mkv
Формат : Matroska
Версия формата : Version 2
Размер файла : 1,46 Гбайт
Продолжительность : 1 ч. 27 м.
Общий поток : 2370 Кбит/сек
Дата кодирования : UTC 2013-08-02 00:48:04
Программа кодирования : mkvmerge v5.0.1 ('Es ist Sommer') built on Nov 6 2011 16:23:40
Библиотека кодирования : libebml v1.2.2 + libmatroska v1.3.0
Видео
Идентификатор : 1
Формат : AVC
Формат/Информация : Advanced Video Codec
Профиль формата : High@L4.1
Параметр CABAC формата : Да
Параметр ReFrames формата : 11 кадров
Идентификатор кодека : V_MPEG4/ISO/AVC
Продолжительность : 1 ч. 27 м.
Битрейт : 2176 Кбит/сек
Ширина : 680 пикселей
Высота : 558 пикселей
Соотношение сторон : 1,296
Частота кадров : 25,000 кадров/сек
Цветовое пространство : YUV
Субдискретизация насыщенности : 4:2:0
Битовая глубина : 8 бит
Тип развёртки : Прогрессивная
Бит/(Пиксели*Кадры) : 0.229
Размер потока : 1,31 Гбайт (90%)
Библиотека кодирования : x264 core 130 r2273 b3065e6
Настройки программы : cabac=1 / ref=11 / deblock=1:-2:-1 / analyse=0x3:0x113 / me=umh / subme=9 / psy=1 / psy_rd=1.00:0.15 / mixed_ref=1 / me_range=32 / chroma_me=1 / trellis=1 / 8x8dct=1 / cqm=0 / deadzone=21,11 / fast_pskip=0 / chroma_qp_offset=-3 / threads=3 / lookahead_threads=1 / sliced_threads=0 / nr=0 / decimate=0 / interlaced=0 / bluray_compat=0 / constrained_intra=0 / bframes=8 / b_pyramid=2 / b_adapt=2 / b_bias=0 / direct=3 / weightb=1 / open_gop=0 / weightp=2 / keyint=250 / keyint_min=25 / scenecut=40 / intra_refresh=0 / rc_lookahead=60 / rc=2pass / mbtree=1 / bitrate=2176 / ratetol=1.0 / qcomp=0.60 / qpmin=0 / qpmax=69 / qpstep=4 / cplxblur=20.0 / qblur=0.5 / ip_ratio=1.40 / aq=1:1.00
Default : Да
Forced : Нет
Аудио
Идентификатор : 2
Формат : AC-3
Формат/Информация : Audio Coding 3
Расширение режима : CM (complete main)
Идентификатор кодека : A_AC3
Продолжительность : 1 ч. 27 м.
Вид битрейта : Постоянный
Битрейт : 192 Кбит/сек
Каналы : 2 канала
Расположение каналов : Front: L R
Частота : 48,0 КГц
Битовая глубина : 16 бит
Метод сжатия : С потерями
Размер потока : 121 Мбайт (8%)
Default : Да
Forced : Нет

Скриншоты

[Профиль] [ЛС]
Кто просматривает тему:

Показать сообщения:    

Текущее время: Сегодня 12:42

Часовой пояс: GMT



Вы не можете начинать темы
Вы не можете отвечать на сообщения
Вы не можете редактировать свои сообщения
Вы не можете удалять свои сообщения
Вы не можете голосовать в опросах
Вы не можете прикреплять файлы к сообщениям
Вы не можете скачивать файлы