Где ты, голубая Золушка? (Владимир Хмельницкий) [1971, СССР, Кукольный мультфильм, SATRip]

 
Автор Сообщение

TorrentFilm ®

Пол:

Стаж: 2 года

Сообщений: 7741



Награды: Нет

Торрент-статистика

Создавать темы 04-Янв-2016 00:12

[Цитировать]

Где ты, голубая Золушка?
Страна: СССР
Жанр: Кукольный мультфильм
Продолжительность: 00:08:14
Год выпуска: 1971
Русские субтитры: нет
Режиссёр: Владимир Хмельницкий
Роли озвучивали: З.Гердт
Описание: Однажды среди игрушек появилась необычная кукла – голубая золушка. Все относились к ней с подозрением и считали самозванкой. Однако какое же это счастье, когда что-то необычное и особенное приходит именно к тебе.
Доп. информация: «Киевнаучфильм»
сценарист Н.Петрова
художник Ц.Оршанский,Д.Дмирецкий,А.Назаренко
звукооператор И.Мойжес
оператор Ф.Ржешуток
композитор Игорь Яковлев
Раздача группы:
Качество: SATRip
Формат: AVI
Видео: 704x528 (1.33:1), 25 fps, XviD MPEG-4 ~2787 kbps avg, 0.30 bit/pixel
Аудио: 44.100 kHz, MPEG Layer 3, 1 ch, ~96.00 kbps avg
Субтитры: нет

Подробные технические данные

Format : AVIFormat/Info : Audio Video InterleaveFile size : 170 MiBDuration : 8mn 14sOverall bit rate : 2 893 KbpsMovie name : Gde ty, Golubaja Zolushka?..Director : Kievnauchfil'mRecorded date : 1971Writing application : VirtualDubMod 1.5.10.2 (build 2540/release)Writing library : VirtualDubMod build 2540/releaseComment : TVrip by Turtle / XviD 1.1.3 @ 0,30 bpp / Lame MP3 44,1 kHz Mono @ 96 kbps
VideoID : 0Format : MPEG-4 VisualFormat profile : Advanced Simple@L5Format settings, BVOP : 1Format settings, QPel : NoFormat settings, GMC : No warppointsFormat settings, Matrix : Default (MPEG)Muxing mode : Packed bitstreamCodec ID : XVIDCodec ID/Hint : XviDDuration : 8mn 14sBit rate : 2 787 KbpsWidth : 704 pixelsHeight : 528 pixelsDisplay aspect ratio : 4:3Frame rate : 25.000 fpsColor space : YUVChroma subsampling : 4:2:0Bit depth : 8 bitsScan type : ProgressiveCompression mode : LossyBits/(Pixel*Frame) : 0.300Stream size : 164 MiB (96%)Writing library : XviD 1.1.2 (UTC 2006-11-01)
AudioID : 1Format : MPEG AudioFormat version : Version 1Format profile : Layer 3Codec ID : 55Codec ID/Hint : MP3Duration : 8mn 13sBit rate mode : ConstantBit rate : 96.0 KbpsChannel(s) : 1 channelSampling rate : 44.1 KHzCompression mode : LossyStream size : 5.65 MiB (3%)Alignment : Split accross interleavesInterleave, duration : 40 ms (1.00 video frame)Interleave, preload duration : 500 ms

Скриншоты

[Профиль] [ЛС]
Кто просматривает тему:

Показать сообщения:    

Текущее время: Сегодня 06:08

Часовой пояс: GMT



Вы не можете начинать темы
Вы не можете отвечать на сообщения
Вы не можете редактировать свои сообщения
Вы не можете удалять свои сообщения
Вы не можете голосовать в опросах
Вы не можете прикреплять файлы к сообщениям
Вы не можете скачивать файлы