Где-то там / Elsewhere (Натан Хоуп / Nathan Hope) [2009, США, триллер, криминал, HDRip] DVO

 
Автор Сообщение

TorrentFilm ®

Пол:

Стаж: 2 года

Сообщений: 7741



Награды: Нет

Торрент-статистика

Создавать темы 25-Апр-2015 00:04

[Цитировать]

Где-то там / Elsewhere
Страна: США
Жанр: триллер, криминал
Год выпуска: 2009
Продолжительность: 01:46:11
Перевод: Любительский (двухголосый закадровый)
Cубтитры: нет

Режиссер: Натан Хоуп / Nathan Hope
В ролях: Анна Кендрик, Джон Гриз, Таня Рэймонд, Оливия Доун Йорк, Пол Уэсли, Чак Картер, Шеннон Холт, Сюзанн Лэнг, Эдди Мартинез, Кинна МакИнро
Описание: Сара и Джилиан были лучшими друзьями на протяжении столь длительного времени, что даже не могут вспомнить, когда их дружба началась. Жизнь двух девочек в небольшом городке в Индиане, очень разная: Сара является талантливой ученицей и спортсменкой, в то время как Джилиан является звездой смутьян. Несмотря на то, что девочки, так долго не могут вырваться из небольшого города, Сара потрясена, обнаружив, что Джилиан использует Интернет для удовлетворения мужчин,с единственной целью — найти тех, кто покажет ей что-то захватывающее. Вскоре после этого, она исчезает, оставляя Саре лишь журнал и зашифрованное видео-сообщение со своего мобильного телефона. Сара привлекает на помощь Джаспера, резидента компьютерных гениев, который тайно обожает ее. Сара погружается с головой на поисках Джилиан. Тропа ведет этих двоих в темные секреты города, где они обнаружат, почему никто не хочет, чтобы Джилиан нашлась.
Качество видео: HDRip
Формат видео: AVI
Видео: 704x400 (1.76:1), 23.976 fps, XviD build 73 ~1509 kbps avg, 0.22 bit/pixel
Аудио: 48 kHz, AC3 Dolby Digital, 3/2 (L,C,R,l,r) + LFE ch, ~448 kbps

Сравнение

Во всех раздачах фильма одна и та же озвучка - любительская, двухголосая. Профа на этот фильм нет
http://torrentfilm.net/forum/viewtopic.php?t=1913747
http://screenshotcomparison.com/comparison/122962

MediaInfo

Общее
Полное имя : H:\Elsewhere.2009.hdrip_[1.46]_[teko].avi
Формат : AVI
Формат/Информация : Audio Video Interleave
Размер файла : 1,46 Гбайт
Продолжительность : 1 ч. 46 м.
Общий поток : 1967 Кбит/сек
Программа кодирования : VirtualDubMod 1.5.10.3 | www.virtualdub-fr.org || (build 2550/release)
Библиотека кодирования : VirtualDubMod build 2550/release
Видео
Идентификатор : 0
Формат : MPEG-4 Visual
Профиль формата : Advanced Simple@L5
Параметр BVOP формата : 1
Параметр QPel формата : Нет
Параметр GMC формата : Без точки перехода
Параметр матрицы формата : Выборочная
Идентификатор кодека : XVID
Идентификатор кодека/Подсказка : XviD
Продолжительность : 1 ч. 46 м.
Битрейт : 1510 Кбит/сек
Ширина : 704 пикселя
Высота : 400 пикселей
Соотношение сторон : 16:9
Частота кадров : 23,976 кадра/сек
Цветовое пространство : YUV
Субдискретизация насыщенности : 4:2:0
Битовая глубина : 8 бит
Тип развёртки : Прогрессивная
Метод сжатия : С потерями
Бит/(Пиксели*Кадры) : 0.224
Размер потока : 1,12 Гбайт (77%)
Библиотека кодирования : XviD 73
Аудио
Идентификатор : 1
Формат : AC-3
Формат/Информация : Audio Coding 3
Расширение режима : CM (complete main)
Параметр Endianness формата : Big
Идентификатор кодека : 2000
Продолжительность : 1 ч. 46 м.
Вид битрейта : Постоянный
Битрейт : 448 Кбит/сек
Каналы : 6 каналов
Расположение каналов : Front: L C R, Side: L R, LFE
Частота : 48,0 КГц
Битовая глубина : 16 бит
Метод сжатия : С потерями
Размер потока : 340 Мбайт (23%)
Выравнивание : Разделение по промежуткам
Продолжительность промежутка : 42 мс. (1,00 видеокадр)
Время предзагрузки промежутка : 500 мс.
Релиз группы:
--
[Профиль] [ЛС]

Создавать темы 06-Авг-2015 22:35 (спустя 3 месяца 11 дней)

Топик был перенесен из форума Фильмы до 2014 года в форум Фильмы до 2012 года
sergej644
 

Создавать темы 12-Июн-2016 08:49 (спустя 1 год 1 месяц)

Топик был перенесен из форума Фильмы 2011 года в форум Фильмы 2009 года
Russian Mafia
 
Кто просматривает тему:

Показать сообщения:    

Текущее время: Сегодня 04:28

Часовой пояс: GMT



Вы не можете начинать темы
Вы не можете отвечать на сообщения
Вы не можете редактировать свои сообщения
Вы не можете удалять свои сообщения
Вы не можете голосовать в опросах
Вы не можете прикреплять файлы к сообщениям
Вы не можете скачивать файлы