Гастролёры / Roadies [S01] (2016) HDTVRip | OMSKBIRD records

 
Автор Сообщение

достали все ®

Пол:

Стаж: 1 год 8 месяцев

Сообщений: 6570



Награды: 12 (Подробнее)

Mega Seeder 2 (Количество: 1) Top Releaser 4 (Количество: 1) Top Releaser 2 (Количество: 1)
Торрент-статистика

Создавать темы 01-Сен-2016 08:00

[Цитировать]

Информация о фильме
Название: Гастролёры
Оригинальное название: Roadies
Год выхода: 2016
Жанр: драма, комедия, музыка
Режиссер: Кэмерон Кроу
В ролях: Люк Уилсон, Карла Гуджино, Имоджен Путс, Рейф Сполл, Киша Касл-Хьюз, Питер Кэмбор, Машин Ган Келли, Кристофер Бакус, Танк Сейд, Рон Уайт и др.
О фильме:
Шоу расскажет о команде специалистов, обеспечивающих техническую поддержку во время тура одной успешной рок-группы.

Страна: США
Продолжительность: ~00:58:00 серия
Перевод: Любительский (многоголосый закадровый) | OMSKBIRD records
Файл
Кодек: XviD
Качество: HDTVRip
Видео: 720x400 (1.80:1), 23.976 fps, XviD build 73 ~2003 kbps avg, 0.29 bit/pixel
Звук:
Аудио rus: AC3, 48 kHz, 6 ch, 384 kbps | OMSKBIRD records
Аудио eng: AC3, 48 kHz, 6 ch, 384 kbps | original
Субтитры: отсутствуют

Семпл

Релиз:

Релиз-группа:
Релиз подготовил:Grandfather61
Роли озвучивали: Павел Ярощик, Александр Дасевич, Марина Гассан
Перевод: Никита Коваль
Звукорежиссер: Павел Квентов
Постер: Ксения Просветова
Работа со звуком: Grandfather61

Список серий:

01. Life is a Carnival
02. What Would Phil Do?
03. The Bryce Newman Letter
04. The City Whose Name Must Not Be Spoken
05. Friends and Family
06. Longest Days
07. Carpet Season
08. The All Night Bus Ride
09. The Corporate Gig
10. The Load Out

MediaInfo:

General
Complete name : G:FilmsRoadies.S01.400p.OmskBirdRoadies.S01E01.400p.HDTVRip.OmskBird.avi
Format : AVI
Format/Info : Audio Video Interleave
File size : 1.13 GiB
Duration : 58mn 0s
Overall bit rate : 2 787 Kbps
Writing application : VirtualDubMod 1.5.10.3 (build 2550/release)
Writing library : VirtualDubMod build 2550/release
Video
ID : 0
Format : MPEG-4 Visual
Format profile : Advanced Simple@L5
Format settings, BVOP : 1
Format settings, QPel : No
Format settings, GMC : No warppoints
Format settings, Matrix : Default (MPEG)
Codec ID : XVID
Codec ID/Hint : XviD
Duration : 58mn 0s
Bit rate : 2 005 Kbps
Width : 720 pixels
Height : 400 pixels
Display aspect ratio : 16:9
Frame rate : 23.976 (23976/1000) fps
Color space : YUV
Chroma subsampling : 4:2:0
Bit depth : 8 bits
Scan type : Progressive
Compression mode : Lossy
Bits/(Pixel*Frame) : 0.290
Stream size : 832 MiB (72%)
Writing library : XviD 73
Audio #1
ID : 1
Format : AC-3
Format/Info : Audio Coding 3
Mode extension : CM (complete main)
Format settings, Endianness : Big
Codec ID : 2000
Duration : 58mn 0s
Bit rate mode : Constant
Bit rate : 384 Kbps
Channel(s) : 6 channels
Channel positions : Front: L C R, Side: L R, LFE
Sampling rate : 48.0 KHz
Frame rate : 31.250 fps (1536 spf)
Compression mode : Lossy
Stream size : 159 MiB (14%)
Alignment : Split accross interleaves
Interleave, duration : 42 ms (1.00 video frame)
Interleave, preload duratio : 500 ms
Audio #2
ID : 2
Format : AC-3
Format/Info : Audio Coding 3
Mode extension : CM (complete main)
Format settings, Endianness : Big
Codec ID : 2000
Duration : 58mn 0s
Bit rate mode : Constant
Bit rate : 384 Kbps
Channel(s) : 6 channels
Channel positions : Front: L C R, Side: L R, LFE
Sampling rate : 48.0 KHz
Frame rate : 31.250 fps (1536 spf)
Compression mode : Lossy
Stream size : 159 MiB (14%)
Alignment : Split accross interleaves
Interleave, duration : 42 ms (1.00 video frame)
Interleave, preload duratio : 500 ms

Скриншоты

Релиз от: Grandfather61 (skyns61)
[Профиль] [ЛС]
Показать сообщения:    

Текущее время: Сегодня 12:49

Часовой пояс: GMT



Вы не можете начинать темы
Вы не можете отвечать на сообщения
Вы не можете редактировать свои сообщения
Вы не можете удалять свои сообщения
Вы не можете голосовать в опросах
Вы не можете прикреплять файлы к сообщениям
Вы не можете скачивать файлы