Гарри Поттер и Дары смерти: Часть II в 3Д / Harry Potter and the Deathly Hallows: Part 2 3D (Дэвид Йэтс / David Yates) [2011, фэнтези, драма, детектив, приключения, BDRip-AVC] Half SideBySide / Горизонтальная анаморфная стереопара

 
Автор Сообщение

TorrentFilm ®

Пол:

Стаж: 1 год 11 месяцев

Сообщений: 7741



Награды: Нет

Торрент-статистика

Создавать темы 17-Дек-2014 02:30

[Цитировать]

Гарри Поттер и Дары смерти: Часть II / Harry Potter and the Deathly Hallows: Part 2- Год выпуска: 2011
Страна: США
Жанр: фэнтези, драма, детектив, приключения
Продолжительность: 02:10:26
Перевод: Профессиональный (дублированный)
Cубтитры: русские, английские-Режиссер: Дэвид Йэтс / David Yates-В ролях: Дэниэл Рэдклифф, Руперт Гринт, Эмма Уотсон, Рэйф Файнс, Алан Рикман, Хелена Бонем Картер, Том Фелтон, Гари Олдман, Майкл Гэмбон, Мэгги Смит.-Описание: В грандиозной последней главе битва между добрыми и злыми силами мира волшебников перерастает во всеобщую войну. Ставки ещё никогда не были так высоки, а поиск убежища — столь сложен. И быть может именно Гарри Поттеру придется пожертвовать всем в финальном сражении с Волан-де-Мортом. Способен ли наш герой спасти мир? И всё закончится здесь.-Качество: BDRip
Контейнер: MKV
Формат 3D: Half SideBySide | Горизонтальная анаморфная стереопара
Видео: 1920x1080 (16:9), 23.976 fps, High Profile 4.1 ~15000 kbps
Аудио: Russian 48 kHz, 5.1 AC3 Dolby Digital Audio, 640.00 kbps | Dub
Аудио 2: Ukrainian 48 kHz, 5.1 AC3 Dolby Digital Audio, 640.00 kbps | Dub
Аудио 3: English 48 kHz, 5.1 AC3 Dolby Digital Audio, 640.00 kbps | Original

Инфо

Формат : Matroska
Версия формата : Version 4 / Version 2
Размер файла : 15,7 Гбайт
Продолжительность : 2 ч. 10 м.
Общий поток : 17,2 Мбит/сек
Название фильма : Гарри Поттер и Дары смерти: Часть II 2011
Дата кодирования : UTC 2014-10-20 16:04:21
Программа кодирования : mkvmerge v6.6.0 ('The Edge Of The In Between') built on Dec 1 2013 17:55:00
Библиотека кодирования : libebml v1.3.0 + libmatroska v1.4.1
Видео
Идентификатор : 1
Формат : AVC
Формат/Информация : Advanced Video Codec
Профиль формата : High@L4.1
Параметр CABAC формата : Да
Параметр ReFrames формата : 4 кадра
Идентификатор кодека : V_MPEG4/ISO/AVC
Продолжительность : 2 ч. 10 м.
Битрейт : 15,0 Мбит/сек
Ширина : 1920 пикселей
Высота : 1080 пикселей
Соотношение сторон : 16:9
Режим частоты кадров : Постоянный
Частота кадров : 23,976 кадра/сек
Цветовое пространство : YUV
Субдискретизация насыщенности : 4:2:0
Битовая глубина : 8 бит
Тип развёртки : Прогрессивная
Бит/(Пиксели*Кадры) : 0.301
Размер потока : 13,6 Гбайт (87%)
Заголовок : BDRip 1080p 3D HSBS
Библиотека кодирования : x264 core 118 r2085 8a62835
Настройки программы : cabac=1 / ref=4 / deblock=1:-1:-1 / analyse=0x3:0x113 / me=umh / subme=8 / psy=1 / psy_rd=1.00:0.15 / mixed_ref=1 / me_range=16 / chroma_me=1 / trellis=1 / 8x8dct=1 / cqm=0 / deadzone=21,11 / fast_pskip=1 / chroma_qp_offset=-3 / threads=6 / sliced_threads=0 / nr=0 / decimate=1 / interlaced=0 / bluray_compat=0 / constrained_intra=0 / bframes=3 / b_pyramid=2 / b_adapt=2 / b_bias=0 / direct=3 / weightb=1 / open_gop=0 / weightp=2 / keyint=250 / keyint_min=23 / scenecut=40 / intra_refresh=0 / rc_lookahead=50 / rc=crf / mbtree=1 / crf=16.0 / qcomp=0.60 / qpmin=0 / qpmax=69 / qpstep=4 / ip_ratio=1.40 / aq=1:1.00
Язык : English
Default : Да
Forced : Нет
Аудио #1
Идентификатор : 2
Формат : AC-3
Формат/Информация : Audio Coding 3
Расширение режима : CM (complete main)
Параметр Endianness формата : Big
Идентификатор кодека : A_AC3
Продолжительность : 2 ч. 10 м.
Вид битрейта : Постоянный
Битрейт : 640 Кбит/сек
Каналы : 6 каналов
Расположение каналов : Front: L C R, Side: L R, LFE
Частота : 48,0 КГц
Битовая глубина : 16 бит
Метод сжатия : С потерями
Размер потока : 597 Мбайт (4%)
Заголовок : Dub
Язык : Russian
Default : Да
Forced : Нет
Аудио #2
Идентификатор : 3
Формат : AC-3
Формат/Информация : Audio Coding 3
Расширение режима : CM (complete main)
Параметр Endianness формата : Big
Идентификатор кодека : A_AC3
Продолжительность : 2 ч. 10 м.
Вид битрейта : Постоянный
Битрейт : 640 Кбит/сек
Каналы : 6 каналов
Расположение каналов : Front: L C R, Side: L R, LFE
Частота : 48,0 КГц
Битовая глубина : 16 бит
Метод сжатия : С потерями
Размер потока : 597 Мбайт (4%)
Заголовок : Dub
Язык : Ukrainian
Default : Нет
Forced : Нет
Аудио #3
Идентификатор : 4
Формат : AC-3
Формат/Информация : Audio Coding 3
Расширение режима : CM (complete main)
Параметр Endianness формата : Big
Идентификатор кодека : A_AC3
Продолжительность : 2 ч. 10 м.
Вид битрейта : Постоянный
Битрейт : 640 Кбит/сек
Каналы : 6 каналов
Расположение каналов : Front: L C R, Side: L R, LFE
Частота : 48,0 КГц
Битовая глубина : 16 бит
Метод сжатия : С потерями
Размер потока : 597 Мбайт (4%)
Заголовок : Original
Язык : English
Default : Нет
Forced : Нет
Текст #1
Идентификатор : 5
Формат : UTF-8
Идентификатор кодека : S_TEXT/UTF8
Идентификатор кодека/Информация : UTF-8 Plain Text
Заголовок : Forced
Язык : Russian
Default : Да
Forced : Нет
Текст #2
Идентификатор : 6
Формат : UTF-8
Идентификатор кодека : S_TEXT/UTF8
Идентификатор кодека/Информация : UTF-8 Plain Text
Заголовок : Full
Язык : Russian
Default : Нет
Forced : Нет
Текст #3
Идентификатор : 7
Формат : UTF-8
Идентификатор кодека : S_TEXT/UTF8
Идентификатор кодека/Информация : UTF-8 Plain Text
Заголовок : Full
Язык : English
Default : Нет
Forced : Нет

Скриншоты

[Профиль] [ЛС]
Кто просматривает тему:

Форум Тема Автор Размер
Фильмы 2011 года Безнадега / Отчаяние / Обреченность / Desperation (Мик Гаррис / Mick Garris) [2006, США, ужасы, фэнтези, триллер, DVDRip] MVO (ТВ-3) + DVO (НТВ+) + AVO (Андрей Гаврилов) + AVO (Михаил Иванов) TorrentFilm 2.34 GB
Отечественные мультфильмы Брак (Гарри Бардин) [1987 г., Мультфильм, для взрослых, драма, DVDRip] painkiller 181 MB
Спортивные фильмы и передачи Величайшие футболисты. Гарринча / The greatest footballers (2015) HDTV 1080i достали все 1.41 GB
Отечественные мультфильмы Выкрутасы (Гарри Бардин) [1987 г., Мультфильм, для взрослых, драма, DVDRip] TorrentFilm 182 MB
Фантастика, фэнтези Гарри Гаррисон - Собрание сочинений (178 книг) [1951-2015, Боевая фантастика, Космоопера, FB2] Garik014 80 MB
Фантастика, фэнтези Гарри Гаррисон - Цикл "Мир Смерти" (1972-2014) FB2 достали все 10 MB
Антологии Гарри Поттер - Антология (2001-2009) PC Russian Mafia 4.36 GB
Зарубежные Гарри Поттер и Дары смерти в 3Д / Harry Potter and the Deathly Hallows 3D (Дэвид Йэтс / David Yates) [2010-2011, Фэнтези, детектив, приключения, BDremux, 1080p] BD3D [Re-Encode] TorrentFilm 68.61 GB
Показать сообщения:    

Текущее время: Сегодня 05:00

Часовой пояс: GMT



Вы не можете начинать темы
Вы не можете отвечать на сообщения
Вы не можете редактировать свои сообщения
Вы не можете удалять свои сообщения
Вы не можете голосовать в опросах
Вы не можете прикреплять файлы к сообщениям
Вы не можете скачивать файлы