Гарри Поттер: Антология / Harry Potter: Antology (Крис Коламбус / Chris Columbus, Альфонсо Куарон / Alfonso Cuaron, Майк Ньюэлл / Mike Newell, Дэвид Йэтс / David Yates) [2001, 2002, 2004, 2005, 2007, 2009, 2010, 2011 | BDRip 720p] DUB

 
Автор Сообщение

sergej644 ®

Пол:

Стаж: 4 года 11 месяцев

Сообщений: 6045

Откуда: Soviet Union



Награды: Нет

Торрент-статистика

Создавать темы 29-Июл-2014 20:05

[Цитировать]

-Гарри Поттер: Антология / Harry Potter: Antology- Название: Гарри Поттер: Антология
Оригинальное название: Harry Potter: Antology
Год выхода: 2001 , 2002 , 2004 , 2005 , 2007 , 2009 , 2010 , 2011
Жанр: фэнтези, приключения, семейный
Режиссер: Крис Коламбус / Chris Columbus, Альфонсо Куарон / Alfonso Cuaron, Майк Ньюэлл / Mike Newell, Дэвид Йэтс / David Yates
Продолжительность: 02:32:21 | 02:40:57 | 02:21:42 | 02:37:06 | 02:18:14 | 02:33:31 | 02:26:05 | 02:10:26
----
Общий бюджет фильма: 1 180 000 000
Общий бюджет фильма в мире: 7 756 147 978
Зрители трех стран лидеров: 519,46 млн.

Гарри Поттер и Философский камень / Harry Potter and the Sorcerer's Stone (2001)

-Гарри Поттер и Философский камень / Harry Potter and the Sorcerer's Stone- Название: Гарри Поттер и философский камень
Оригинальное название: Harry Potter and the Sorcerer's Stone
Год выхода: 2001
Выпущено: США
Жанр: фэнтези, приключения, семейный
Режиссер: Крис Коламбус / Chris Columbus
Продолжительность: 02:32:21
Перевод: Профессиональный (дублированный) [лицензия]
В ролях:
Дэниэл Рэдклифф, Эмма Уотсон, Руперт Гринт, Ричард Харрис, Мэгги Смит, Робби Колтрейн, Саундерс Триплетс, Фиона Шоу, Гарри Меллинг, Ричард Гриффитс, Дерек Дэдмен, Иэн Харт и др.
О фильме:
Обычный лондонский мальчик Гарри Поттер на 11-м году жизни узнает, что он - осиротевший сын двух могущественных волшебников, и сам обладает магической силой.
В Хогвартской школе чародейства и волшебства Гарри попадает в водоворот невероятных приключений. Он изучает квиддич - спорт высшего пилотажа, играет в захватывающую игру живыми шахматными фигурами, встречается с Темным Волшебником, который хочет его уничтожить.


- бюджет: 125 000 000
сборы в США: 317 575 550
сборы в мире: 974 755 371
сборы в России: 5 474 384
зрители: 55,7 млн | 16,2 млн | 12,4 млн
-Файл:
Качество: BDRip [720p]
Видео: 1280x528, 3718 Кбит/сек, 23,976 кадр/сек, AVC, x264, 2,40:1, 0.229 Бит/[Пиксели*Кадры], 2pass
Аудио: AC-3, 384 Кбит/сек, 6 канала(ов), 48,0 КГц
-

MI

Формат                                   : Matroska
Версия формата                           : Version 2
Размер файла                             : 4,37 Гбайт
Продолжительность                        : 2 ч. 32 м.
Общий поток                              : 4103 Кбит/сек
Дата кодирования                         : UTC 2013-01-06 16:36:24
Программа кодирования                    : mkvmerge v5.8.0 ('No Sleep / Pillow') built on Sep  2 2012 15:37:04
Библиотека кодирования                   : libebml v1.2.3 + libmatroska v1.3.0
Видео
Идентификатор                            : 1
Формат                                   : AVC
Формат/Информация                        : Advanced Video Codec
Профиль формата                          : High@L3.1
Параметр CABAC формата                   : Да
Параметр ReFrames формата                : 4 кадра
Идентификатор кодека                     : V_MPEG4/ISO/AVC
Продолжительность                        : 2 ч. 32 м.
Битрейт                                  : 3718 Кбит/сек
Ширина                                   : 1280 пикселей
Высота                                   : 528 пикселей
Соотношение сторон                       : 2,40:1
Соотношение сторон в оригинале           : 2,40:1
Режим частоты кадров                     : Постоянный
Частота кадров                           : 23,976 кадра/сек
Цветовое пространство                    : YUV
Субдискретизация насыщенности            : 4:2:0
Битовая глубина                          : 8 бит
Тип развёртки                            : Прогрессивная
Бит/(Пиксели*Кадры)                      : 0.229
Размер потока                            : 3,87 Гбайт (89%)
Библиотека кодирования                   : x264 core 129 r2230 1cffe9f
Настройки программы                      : cabac=1 / ref=3 / deblock=1:0:0 / analyse=0x3:0x133 / me=hex / subme=7 / psy=1 / psy_rd=1.00:0.00 / mixed_ref=1 / me_range=16 / chroma_me=1 / trellis=1 / 8x8dct=1 / cqm=0 / deadzone=21,11 / fast_pskip=1 / chroma_qp_offset=-2 / threads=6 / lookahead_threads=1 / sliced_threads=0 / nr=0 / decimate=1 / interlaced=0 / bluray_compat=0 / constrained_intra=0 / bframes=3 / b_pyramid=2 / b_adapt=1 / b_bias=0 / direct=1 / weightb=1 / open_gop=0 / weightp=2 / keyint=240 / keyint_min=23 / scenecut=40 / intra_refresh=0 / rc_lookahead=40 / rc=2pass / mbtree=1 / bitrate=3718 / ratetol=1.0 / qcomp=0.60 / qpmin=0 / qpmax=69 / qpstep=4 / cplxblur=20.0 / qblur=0.5 / ip_ratio=1.40 / aq=1:1.00
Язык                                     : English
Default                                  : Да
Forced                                   : Нет
Аудио
Идентификатор                            : 2
Формат                                   : AC-3
Формат/Информация                        : Audio Coding 3
Расширение режима                        : CM (complete main)
Параметр Endianness формата              : Big
Идентификатор кодека                     : A_AC3
Продолжительность                        : 2 ч. 32 м.
Вид битрейта                             : Постоянный
Битрейт                                  : 384 Кбит/сек
Каналы                                   : 6 каналов
Расположение каналов                     : Front: L C R, Side: L R, LFE
Частота                                  : 48,0 КГц
Битовая глубина                          : 16 бит
Метод сжатия                             : С потерями
Размер потока                            : 418 Мбайт (9%)
Default                                  : Да
Forced                                   : Нет
-
-

Гарри Поттер и тайная комната / Harry Potter and the Chamber of Secrets (2002)

-Гарри Поттер и тайная комната / Harry Potter and the Chamber of Secrets- Название: Гарри Поттер и тайная комната
Оригинальное название: Harry Potter and the Chamber of Secrets
Год выхода: 2002
Выпущено: Великобритания, США
Жанр: фэнтези, приключения, семейный
Продолжительность: 02:40:57
Перевод: Профессиональный (дублированный)[лицензия]
Режиссер: Крис Коламбус / Chris Columbus
В ролях:
Дэниэл Рэдклифф, Руперт Гринт, Эмма Уотсон, Ричард Гриффитс, Алан Рикман, Фиона Шоу, Гарри Меллинг, Тоби Джонс, Джим Нортон, Вероника Клиффорд, Джеймс Фелпс и др.
О фильме:
Гарри Поттер переходит на второй курс Школы чародейства и волшебства Хогвартс. Эльф Добби предупреждает Гарри об опасности, которая поджидает его там, и просит больше не возвращаться в школу.
Юный волшебник не следует совету эльфа и становится свидетелем таинственных событий, разворачивающихся в Хогвартсе. Вскоре Гарри и его друзья узнают о существовании Тайной Комнаты и сталкиваются с новыми приключениями, пытаясь победить темные силы.


- бюджет: 100 000 000
сборы в США: 261 988 482
сборы в мире: 878 979 634
сборы в России: 8 000 000
зрители: 45,1 млн | 13,9 млн | 12,2 млн
-Файл:
Качество: BDRip [720p]
Видео: 1280x528, 3499 Кбит/сек, 23,976 кадр/сек, AVC, x264, 2,40:1, 0.216 Бит/[Пиксели*Кадры], 2pass
Аудио: AC-3, 384 Кбит/сек, 6 канала(ов), 48,0 КГц
-

MI

Формат                                   : Matroska
Версия формата                           : Version 2
Размер файла                             : 4,37 Гбайт
Продолжительность                        : 2 ч. 40 м.
Общий поток                              : 3885 Кбит/сек
Дата кодирования                         : UTC 2013-01-06 16:56:26
Программа кодирования                    : mkvmerge v5.8.0 ('No Sleep / Pillow') built on Sep  2 2012 15:37:04
Библиотека кодирования                   : libebml v1.2.3 + libmatroska v1.3.0
Видео
Идентификатор                            : 1
Формат                                   : AVC
Формат/Информация                        : Advanced Video Codec
Профиль формата                          : High@L3.1
Параметр CABAC формата                   : Да
Параметр ReFrames формата                : 4 кадра
Идентификатор кодека                     : V_MPEG4/ISO/AVC
Продолжительность                        : 2 ч. 40 м.
Битрейт                                  : 3499 Кбит/сек
Ширина                                   : 1280 пикселей
Высота                                   : 528 пикселей
Соотношение сторон                       : 2,40:1
Соотношение сторон в оригинале           : 2,40:1
Режим частоты кадров                     : Постоянный
Частота кадров                           : 23,976 кадра/сек
Цветовое пространство                    : YUV
Субдискретизация насыщенности            : 4:2:0
Битовая глубина                          : 8 бит
Тип развёртки                            : Прогрессивная
Бит/(Пиксели*Кадры)                      : 0.216
Размер потока                            : 3,85 Гбайт (88%)
Библиотека кодирования                   : x264 core 129 r2230 1cffe9f
Настройки программы                      : cabac=1 / ref=3 / deblock=1:0:0 / analyse=0x3:0x133 / me=hex / subme=7 / psy=1 / psy_rd=1.00:0.00 / mixed_ref=1 / me_range=16 / chroma_me=1 / trellis=1 / 8x8dct=1 / cqm=0 / deadzone=21,11 / fast_pskip=1 / chroma_qp_offset=-2 / threads=6 / lookahead_threads=1 / sliced_threads=0 / nr=0 / decimate=1 / interlaced=0 / bluray_compat=0 / constrained_intra=0 / bframes=3 / b_pyramid=2 / b_adapt=1 / b_bias=0 / direct=1 / weightb=1 / open_gop=0 / weightp=2 / keyint=240 / keyint_min=23 / scenecut=40 / intra_refresh=0 / rc_lookahead=40 / rc=2pass / mbtree=1 / bitrate=3499 / ratetol=1.0 / qcomp=0.60 / qpmin=0 / qpmax=69 / qpstep=4 / cplxblur=20.0 / qblur=0.5 / ip_ratio=1.40 / aq=1:1.00
Язык                                     : English
Default                                  : Да
Forced                                   : Нет
Аудио
Идентификатор                            : 2
Формат                                   : AC-3
Формат/Информация                        : Audio Coding 3
Расширение режима                        : CM (complete main)
Параметр Endianness формата              : Big
Идентификатор кодека                     : A_AC3
Продолжительность                        : 2 ч. 40 м.
Вид битрейта                             : Постоянный
Битрейт                                  : 384 Кбит/сек
Каналы                                   : 6 каналов
Расположение каналов                     : Front: L C R, Side: L R, LFE
Частота                                  : 48,0 КГц
Битовая глубина                          : 16 бит
Метод сжатия                             : С потерями
Размер потока                            : 442 Мбайт (10%)
Default                                  : Да
Forced                                   : Нет
-
-

Гарри Поттер и узник Азкабана / Harry Potter and the Prisoner of Azkaban (2004)

-Гарри Поттер и узник Азкабана / Harry Potter and the Prisoner of Azkaban - Название: Гарри Поттер и узник Азкабана
Оригинальное название: Harry Potter and the Prisoner of Azkaban
Год выхода: 2004
Выпущено: США
Жанр: фэнтези, детектив, приключения, семейный
Продолжительность: 02:21:42
Перевод: Профессиональный (дублированный) [лицензия]
Режиссер: Альфонсо Куарон / Alfonso Cuaron
В ролях:
Дэниэл Рэдклифф,Эмма Уотсон, Руперт Гринт, Дэвид Тьюлис, Ричард Гриффитс, Алан Рикман, Пэм Феррис, Фиона Шоу, Гари Олдман, Гарри Меллинг, Эдриан Роулинз, Джеральдин Самервилль, Ли Инглби и др.
О фильме:
В третьей части экранизации бестселлера о юном волшебнике, полюбившиеся всем герои — Гарри Поттер, Рон и Гермиона — возвращаются уже на третий курс школы чародейства и волшебства «Хогвартс». На этот раз они должны раскрыть тайну узника, сбежавшего из зловещей тюрьмы Азкабан, чье пребывание на воле создает для Гарри смертельную опасность…

- бюджет: 130 000 000
сборы в США: 249 541 069
сборы в мире: 796 688 549
сборы в России: 7 800 000
зрители: 40,2 млн | 11 млн | 10,3 млн
-Файл:
Качество: BDRip [720p]
Видео: 1280x528, 4027 Кбит/сек, 23,976 кадр/сек, AVC, x264, 2,40:1, 0.249 Бит/[Пиксели*Кадры], 2pass
Аудио: AC-3, 384 Кбит/сек, 6 канала(ов), 48,0 КГц
-

MI

Формат                                   : Matroska
Версия формата                           : Version 2
Размер файла                             : 4,37 Гбайт
Продолжительность                        : 2 ч. 21 м.
Общий поток                              : 4413 Кбит/сек
Дата кодирования                         : UTC 2013-01-06 17:09:45
Программа кодирования                    : mkvmerge v5.8.0 ('No Sleep / Pillow') built on Sep  2 2012 15:37:04
Библиотека кодирования                   : libebml v1.2.3 + libmatroska v1.3.0
Видео
Идентификатор                            : 1
Формат                                   : AVC
Формат/Информация                        : Advanced Video Codec
Профиль формата                          : High@L3.1
Параметр CABAC формата                   : Да
Параметр ReFrames формата                : 4 кадра
Идентификатор кодека                     : V_MPEG4/ISO/AVC
Продолжительность                        : 2 ч. 21 м.
Битрейт                                  : 4027 Кбит/сек
Ширина                                   : 1280 пикселей
Высота                                   : 528 пикселей
Соотношение сторон                       : 2,40:1
Соотношение сторон в оригинале           : 2,40:1
Режим частоты кадров                     : Постоянный
Частота кадров                           : 23,976 кадра/сек
Цветовое пространство                    : YUV
Субдискретизация насыщенности            : 4:2:0
Битовая глубина                          : 8 бит
Тип развёртки                            : Прогрессивная
Бит/(Пиксели*Кадры)                      : 0.249
Размер потока                            : 3,90 Гбайт (89%)
Библиотека кодирования                   : x264 core 129 r2230 1cffe9f
Настройки программы                      : cabac=1 / ref=3 / deblock=1:0:0 / analyse=0x3:0x133 / me=hex / subme=7 / psy=1 / psy_rd=1.00:0.00 / mixed_ref=1 / me_range=16 / chroma_me=1 / trellis=1 / 8x8dct=1 / cqm=0 / deadzone=21,11 / fast_pskip=1 / chroma_qp_offset=-2 / threads=6 / lookahead_threads=1 / sliced_threads=0 / nr=0 / decimate=1 / interlaced=0 / bluray_compat=0 / constrained_intra=0 / bframes=3 / b_pyramid=2 / b_adapt=1 / b_bias=0 / direct=1 / weightb=1 / open_gop=0 / weightp=2 / keyint=240 / keyint_min=23 / scenecut=40 / intra_refresh=0 / rc_lookahead=40 / rc=2pass / mbtree=1 / bitrate=4027 / ratetol=1.0 / qcomp=0.60 / qpmin=0 / qpmax=69 / qpstep=4 / cplxblur=20.0 / qblur=0.5 / ip_ratio=1.40 / aq=1:1.00
Язык                                     : English
Default                                  : Да
Forced                                   : Нет
Аудио
Идентификатор                            : 2
Формат                                   : AC-3
Формат/Информация                        : Audio Coding 3
Расширение режима                        : CM (complete main)
Параметр Endianness формата              : Big
Идентификатор кодека                     : A_AC3
Продолжительность                        : 2 ч. 21 м.
Вид битрейта                             : Постоянный
Битрейт                                  : 384 Кбит/сек
Каналы                                   : 6 каналов
Расположение каналов                     : Front: L C R, Side: L R, LFE
Частота                                  : 48,0 КГц
Битовая глубина                          : 16 бит
Метод сжатия                             : С потерями
Размер потока                            : 389 Мбайт (9%)
Default                                  : Да
Forced                                   : Нет
- -

Гарри Поттер и кубок огня / Harry Potter and the Goblet of Fire (2005)

-Гарри Поттер и кубок огня / Harry Potter and the Goblet of Fire- Название: Гарри Поттер и кубок огня
Оригинальное название: Harry Potter and the Goblet of Fire
Год выхода: 2005
Выпущено: США
Жанр: фэнтези, приключения, семейный
Продолжительность: 02:37:06
Перевод: Профессиональный (дублированный) [лицензия]
Режиссер: Майк Ньюэлл / Mike Newell
В ролях:
Дэниэл Рэдклифф,Эмма Уотсон, Руперт Гринт, Ричард Гриффитс, Алан Рикман, Эрик Сайкс, Тимоти Сполл, Дэвид Теннант, Роберт Паттинсон, Гэрри Олдмен, Рэйф Файнс, Робби Колтрейн, Дэвид Тьюлис, Марк Уильямс, Джеймс Фелпс, Оливер Фелпс, Бонни Райт и др.
О фильме:
Гарри Поттер, Рон и Гермиона возвращаются на четвертый курс школы чародейства и волшебства «Хогвартс». При таинственных обстоятельствах Гарри отобран в число участников опасного соревнования — Турнира Трех Волшебников, однако проблема в том, что все его соперники — намного старше и сильнее.
К тому же, знаки указывают на возвращение Лорда Волдеморта. Вскоре Гарри предстоит побороться не только за победу в соревновании, но и, прежде всего, за свою жизнь…


- бюджет: 150 000 000
сборы в США: 290 013 036
сборы в мире: 896 911 078
сборы в России: 7 837 194
зрители: 45,2 млн | 10,4 млн | 9,2 млн
-Файл:
Качество: BDRip [720p]
Видео: 1280x528, 3594 Кбит/сек, 23,976 кадр/сек, AVC, x264, 2,40:1, 0.222 Бит/[Пиксели*Кадры], 2pass
Аудио: AC-3, 384 Кбит/сек, 6 канала(ов), 48,0 КГц
-

MI

Формат                                   : Matroska
Версия формата                           : Version 2
Размер файла                             : 4,37 Гбайт
Продолжительность                        : 2 ч. 37 м.
Общий поток                              : 3979 Кбит/сек
Дата кодирования                         : UTC 2013-01-06 17:18:51
Программа кодирования                    : mkvmerge v5.8.0 ('No Sleep / Pillow') built on Sep  2 2012 15:37:04
Библиотека кодирования                   : libebml v1.2.3 + libmatroska v1.3.0
Видео
Идентификатор                            : 1
Формат                                   : AVC
Формат/Информация                        : Advanced Video Codec
Профиль формата                          : High@L3.1
Параметр CABAC формата                   : Да
Параметр ReFrames формата                : 4 кадра
Идентификатор кодека                     : V_MPEG4/ISO/AVC
Продолжительность                        : 2 ч. 37 м.
Битрейт                                  : 3594 Кбит/сек
Ширина                                   : 1280 пикселей
Высота                                   : 528 пикселей
Соотношение сторон                       : 2,40:1
Соотношение сторон в оригинале           : 2,40:1
Режим частоты кадров                     : Постоянный
Частота кадров                           : 23,976 кадра/сек
Цветовое пространство                    : YUV
Субдискретизация насыщенности            : 4:2:0
Битовая глубина                          : 8 бит
Тип развёртки                            : Прогрессивная
Бит/(Пиксели*Кадры)                      : 0.222
Размер потока                            : 3,86 Гбайт (88%)
Библиотека кодирования                   : x264 core 129 r2230 1cffe9f
Настройки программы                      : cabac=1 / ref=3 / deblock=1:0:0 / analyse=0x3:0x133 / me=hex / subme=7 / psy=1 / psy_rd=1.00:0.00 / mixed_ref=1 / me_range=16 / chroma_me=1 / trellis=1 / 8x8dct=1 / cqm=0 / deadzone=21,11 / fast_pskip=1 / chroma_qp_offset=-2 / threads=6 / lookahead_threads=1 / sliced_threads=0 / nr=0 / decimate=1 / interlaced=0 / bluray_compat=0 / constrained_intra=0 / bframes=3 / b_pyramid=2 / b_adapt=1 / b_bias=0 / direct=1 / weightb=1 / open_gop=0 / weightp=2 / keyint=240 / keyint_min=23 / scenecut=40 / intra_refresh=0 / rc_lookahead=40 / rc=2pass / mbtree=1 / bitrate=3594 / ratetol=1.0 / qcomp=0.60 / qpmin=0 / qpmax=69 / qpstep=4 / cplxblur=20.0 / qblur=0.5 / ip_ratio=1.40 / aq=1:1.00
Язык                                     : English
Default                                  : Да
Forced                                   : Нет
Аудио
Идентификатор                            : 2
Формат                                   : AC-3
Формат/Информация                        : Audio Coding 3
Расширение режима                        : CM (complete main)
Параметр Endianness формата              : Big
Идентификатор кодека                     : A_AC3
Продолжительность                        : 2 ч. 37 м.
Вид битрейта                             : Постоянный
Битрейт                                  : 384 Кбит/сек
Каналы                                   : 6 каналов
Расположение каналов                     : Front: L C R, Side: L R, LFE
Частота                                  : 48,0 КГц
Битовая глубина                          : 16 бит
Метод сжатия                             : С потерями
Размер потока                            : 431 Мбайт (10%)
Default                                  : Да
Forced                                   : Нет
-
-

Гарри Поттер и орден Феникса / Harry Potter and the Order of the Phoenix (2007)

-Гарри Поттер и орден Феникса / Harry Potter and the Order of the Phoenix- Название: Гарри Поттер и орден Феникса
Оригинальное название: Harry Potter and the Order of the Phoenix
Год выхода: 2007
Выпущено: США
Жанр: фэнтези, приключения, семейный
Продолжительность: 02:18:14
Перевод: Профессиональный (дублированный) [лицензия]
Режиссер: Дэвид Йэтс / David Yates
В ролях:
Дэниэл Рэдклифф, Эмма Уотсон, Руперт Гринт, Рэйф Файнс, Алан Рикман, Брендан Глисон, Гари Олдман, Дэвид Тьюлис, Мэгги Смит, Джули Уолтерс, Бонни Райт, Джейсон Айзекс, Том Фелтон, Эванна Линч, Эмма Томпсон, Хелена Бонем Картер, Робби Колтрейн, Гарри Меллинг, Джейсон Бойд, Ричард Маклин, Кэтрин Хантер, Майлз Джапп, Фиона Шоу, Ричард Гриффитс, Джессика Хайнс, Эдриан Роулинз и др.
О фильме:

Гарри проводит свой пятый год обучения в школе Хогвартс и обнаруживает, что многие из членов волшебного сообщества отрицают сам факт недавнего состязания юного волшебника с воплощением вселенского зла Волдемортом, делая вид, что не имеют ни малейшего представления о том, что злодей вернулся.
Опасаясь, что почтенный глава Хогвартса Альбус Дамблдор распространяет лживые слухи о возвращении Волдеморта, стремясь подорвать авторитет Министра Магии Корнелиуса Фаджа и в дальнейшем занять его место, Корнелиус назначает нового профессора защиты от темных искусств, который должен будет пристально следить за Дамблдором и студентами Хогвартса.
Но одобренный министерством курс лекций по защитной магии профессора Долорес Амбридж оказывается на практике абсолютно бесполезным — юные волшебники просто неспособны противостоять действию темных сил, угрожающих им и всему волшебному сообществу. И тогда, по настоянию своих друзей, Гермионы и Рона, Гарри берет инициативу в свои руки.
Тайно встречаясь с небольшой группой студентов, называющей себя Отрядом Дамблдора, Гарри обучает их самозащите от темных сил, готовя отважных волшебников к необычной схватке, которая ждет их впереди.

- бюджет: 150 000 000
сборы в США: 292 004 738
сборы в мире: 939 885 929
сборы в России: 16 326 219
зрители: 42,4 млн | 9,79 млн | 7,8 млн
-Файл:
Качество: BDRip [720p]
Видео: 1280x528, 4137 Кбит/сек, 23,976 кадр/сек, AVC, x264, 2,40:1, 0.255 Бит/[Пиксели*Кадры], 2pass
Аудио: AC-3, 384 Кбит/сек, 6 канала(ов), 48,0 КГц
-

MI

Формат                                   : Matroska
Версия формата                           : Version 2
Размер файла                             : 4,37 Гбайт
Продолжительность                        : 2 ч. 18 м.
Общий поток                              : 4522 Кбит/сек
Дата кодирования                         : UTC 2013-01-06 18:04:59
Программа кодирования                    : mkvmerge v5.8.0 ('No Sleep / Pillow') built on Sep  2 2012 15:37:04
Библиотека кодирования                   : libebml v1.2.3 + libmatroska v1.3.0
Видео
Идентификатор                            : 1
Формат                                   : AVC
Формат/Информация                        : Advanced Video Codec
Профиль формата                          : High@L3.1
Параметр CABAC формата                   : Да
Параметр ReFrames формата                : 4 кадра
Идентификатор кодека                     : V_MPEG4/ISO/AVC
Продолжительность                        : 2 ч. 18 м.
Битрейт                                  : 4137 Кбит/сек
Ширина                                   : 1280 пикселей
Высота                                   : 528 пикселей
Соотношение сторон                       : 2,40:1
Соотношение сторон в оригинале           : 2,40:1
Режим частоты кадров                     : Постоянный
Частота кадров                           : 23,976 кадра/сек
Цветовое пространство                    : YUV
Субдискретизация насыщенности            : 4:2:0
Битовая глубина                          : 8 бит
Тип развёртки                            : Прогрессивная
Бит/(Пиксели*Кадры)                      : 0.255
Размер потока                            : 3,91 Гбайт (90%)
Библиотека кодирования                   : x264 core 129 r2230 1cffe9f
Настройки программы                      : cabac=1 / ref=3 / deblock=1:0:0 / analyse=0x3:0x113 / me=hex / subme=7 / psy=1 / psy_rd=1.00:0.00 / mixed_ref=1 / me_range=16 / chroma_me=1 / trellis=1 / 8x8dct=1 / cqm=0 / deadzone=21,11 / fast_pskip=1 / chroma_qp_offset=-2 / threads=6 / lookahead_threads=1 / sliced_threads=0 / nr=0 / decimate=1 / interlaced=0 / bluray_compat=0 / constrained_intra=0 / bframes=3 / b_pyramid=2 / b_adapt=1 / b_bias=0 / direct=1 / weightb=1 / open_gop=0 / weightp=2 / keyint=240 / keyint_min=23 / scenecut=40 / intra_refresh=0 / rc_lookahead=40 / rc=2pass / mbtree=1 / bitrate=4137 / ratetol=1.0 / qcomp=0.60 / qpmin=0 / qpmax=69 / qpstep=4 / cplxblur=20.0 / qblur=0.5 / ip_ratio=1.40 / aq=1:1.00
Язык                                     : English
Default                                  : Да
Forced                                   : Нет
Аудио
Идентификатор                            : 2
Формат                                   : AC-3
Формат/Информация                        : Audio Coding 3
Расширение режима                        : CM (complete main)
Параметр Endianness формата              : Big
Идентификатор кодека                     : A_AC3
Продолжительность                        : 2 ч. 18 м.
Вид битрейта                             : Постоянный
Битрейт                                  : 384 Кбит/сек
Каналы                                   : 6 каналов
Расположение каналов                     : Front: L C R, Side: L R, LFE
Частота                                  : 48,0 КГц
Битовая глубина                          : 16 бит
Метод сжатия                             : С потерями
Размер потока                            : 380 Мбайт (8%)
Default                                  : Да
Forced                                   : Нет
- -

Гарри Поттер и Принц-полукровка / Harry Potter and the Half-Blood Prince (2009)

-Гарри Поттер и Принц-полукровка / Harry Potter and the Half-Blood Prince- Название: Гарри Поттер и Принц-полукровка
Оригинальное название: Harry Potter and the Half-Blood Prince
Год выхода: 2009
Выпущено: США
Жанр: фэнтези, приключения, семейный
Режиссер: Дэвид Йэтс / David Yates
Продолжительность: 02:33:30
Перевод: Профессиональный (дублированный) [лицензия]
В ролях:
Дэниэл Рэдклифф, Руперт Гринт, Эмма Уотсон, Джим Броудбент, Эларика Галлахер, Робби Колтрейн, Майкл Гэмбон, Мэгги Смит, Алан Рикман, Бонни Райт и др.
О фильме:

Теперь не только мир волшебников, но и мир маглов ощущает на себе все возрастающую силу Волан-де-Морта, а Хогвартс уже никак не назовешь надежным убежищем, каким он был раньше. Гарри подозревает, что в самом замке затаилась некая опасность, но Дамблдор больше сосредоточен на том, чтобы подготовить его к финальной схватке, которая, как он знает, уже не за горами. Вместе они пытаются разгадать секрет бессмертия Волан-де-Морта, а для этого Дамблдор приглашает на должность преподавателя по зельеварению своего старинного друга и коллегу — профессора Горация Слизнорта, который обожает устраивать вечеринки для избранных и гордится своими обширными связями в высших кругах. Но этот бонвиван и не подозревает, что как раз от него Дамблдор надеется заполучить самую важную информацию о крестражах.
Тем временем учеников атакуют самые разные враги, а подростковые эмоции хлещут через край. Гарри начинает понимать, что становится все более неравнодушным к Джинни, однако, и Дин Томас тоже. А Лаванда Браун вбила себе в голову, что Рон — тот самый единственный, которого она ждет, да вот только не учла волшебного эффекта шоколадных конфет Ромильды Вейн! Ну и, наконец, Гермиона пылает жгучей ревностью, но старается не показывать своих чувств. Пока романтические отношения расцветают, лишь один ученик остается в стороне. Он твердо намерен оставить свою метку, темную метку. Любовь витает в воздухе, но впереди ждет беда, и Хогвартс, возможно, уже никогда не будет прежним.

- бюджет: 250 000 000
сборы в США: 301 959 197
сборы в мире: 934 416 487
сборы в России: 18 753 368
зрители: 40,3 млн | 9,32 млн | 6,45 млн
-Файл:
Качество: BDRip [720p]
Видео: 1280x528, 3687 Кбит/сек, 23,976 кадр/сек, AVC, x264, 2,40:1, 0.228 Бит/[Пиксели*Кадры], 2pass
Аудио: AC-3, 384 Кбит/сек, 6 канала(ов), 48,0 КГц
-

MI

Формат                                   : Matroska
Версия формата                           : Version 2
Размер файла                             : 4,37 Гбайт
Продолжительность                        : 2 ч. 33 м.
Общий поток                              : 4072 Кбит/сек
Дата кодирования                         : UTC 2013-01-06 18:28:12
Программа кодирования                    : mkvmerge v5.8.0 ('No Sleep / Pillow') built on Sep  2 2012 15:37:04
Библиотека кодирования                   : libebml v1.2.3 + libmatroska v1.3.0
Видео
Идентификатор                            : 1
Формат                                   : AVC
Формат/Информация                        : Advanced Video Codec
Профиль формата                          : High@L3.1
Параметр CABAC формата                   : Да
Параметр ReFrames формата                : 4 кадра
Идентификатор кодека                     : V_MPEG4/ISO/AVC
Продолжительность                        : 2 ч. 33 м.
Битрейт                                  : 3687 Кбит/сек
Ширина                                   : 1280 пикселей
Высота                                   : 528 пикселей
Соотношение сторон                       : 2,40:1
Соотношение сторон в оригинале           : 2,40:1
Режим частоты кадров                     : Постоянный
Частота кадров                           : 23,976 кадра/сек
Цветовое пространство                    : YUV
Субдискретизация насыщенности            : 4:2:0
Битовая глубина                          : 8 бит
Тип развёртки                            : Прогрессивная
Бит/(Пиксели*Кадры)                      : 0.228
Размер потока                            : 3,87 Гбайт (89%)
Библиотека кодирования                   : x264 core 129 r2230 1cffe9f
Настройки программы                      : cabac=1 / ref=3 / deblock=1:0:0 / analyse=0x3:0x113 / me=hex / subme=7 / psy=1 / psy_rd=1.00:0.00 / mixed_ref=1 / me_range=16 / chroma_me=1 / trellis=1 / 8x8dct=1 / cqm=0 / deadzone=21,11 / fast_pskip=1 / chroma_qp_offset=-2 / threads=6 / lookahead_threads=1 / sliced_threads=0 / nr=0 / decimate=1 / interlaced=0 / bluray_compat=0 / constrained_intra=0 / bframes=3 / b_pyramid=2 / b_adapt=1 / b_bias=0 / direct=1 / weightb=1 / open_gop=0 / weightp=2 / keyint=240 / keyint_min=23 / scenecut=40 / intra_refresh=0 / rc_lookahead=40 / rc=2pass / mbtree=1 / bitrate=3687 / ratetol=1.0 / qcomp=0.60 / qpmin=0 / qpmax=69 / qpstep=4 / cplxblur=20.0 / qblur=0.5 / ip_ratio=1.40 / aq=1:1.00
Язык                                     : English
Default                                  : Да
Forced                                   : Нет
Аудио
Идентификатор                            : 2
Формат                                   : AC-3
Формат/Информация                        : Audio Coding 3
Расширение режима                        : CM (complete main)
Параметр Endianness формата              : Big
Идентификатор кодека                     : A_AC3
Продолжительность                        : 2 ч. 33 м.
Вид битрейта                             : Постоянный
Битрейт                                  : 384 Кбит/сек
Каналы                                   : 6 каналов
Расположение каналов                     : Front: L C R, Side: L R, LFE
Частота                                  : 48,0 КГц
Битовая глубина                          : 16 бит
Метод сжатия                             : С потерями
Размер потока                            : 422 Мбайт (9%)
Default                                  : Да
Forced                                   : Нет
- -

Гарри Поттер и дары смерти: Часть I / Harry Potter and the Deathly Hallows: Part 1 (2010)

-Гарри Поттер и дары смерти: Часть I / Harry Potter and the Deathly Hallows: Part 1- Название: Гарри Поттер и дары смерти: Часть I
Оригинальное название: Harry Potter and the Deathly Hallows: Part 1
Год выхода: 2010
Выпущено: США
Жанр: фэнтези, приключения, семейный
Режиссер: Дэвид Йэтс / David Yates
Продолжительность: 02:26:05
Перевод: Профессиональный (дублированный) [лицензия]
В ролях:
Дэниэл Рэдклифф, Руперт Гринт, Эмма Уотсон, Том Фелтон, Бонни Райт, Алан Рикман, Рэйф Файнс, Хелена Бонем Картер, Майкл Гэмбон, Брендан Глисон
О фильме:
Гарри Поттера ждёт самое страшное испытание в жизни - смертельная схватка с Волан-де-Мортом. Ждать помощи не от кого - Гарри одинок, как никогда... Друзья и враги Гарри предстают в совершенно неожиданном свете. Граница между Добром и Злом становится всё призрачнее...

- бюджет: 150 000 000
сборы в США: 295 983 305
сборы в мире: 956 399 711
сборы в России: 25 663 781
зрители: 35,9 млн | 8,38 млн | 6,82 млн
-Файл:
Качество: BDRip [720p]
Видео: 1280x528, 3894 Кбит/сек, 23,976 кадр/сек, AVC, x264, 2,40:1, 0.243 Бит/[Пиксели*Кадры], 2pass
Аудио: AC-3, 384 Кбит/сек, 6 канала(ов), 48,0 КГц
-

MI

Формат                                   : Matroska
Версия формата                           : Version 2
Размер файла                             : 4,37 Гбайт
Продолжительность                        : 2 ч. 26 м.
Общий поток                              : 4280 Кбит/сек
Дата кодирования                         : UTC 2013-01-06 18:54:19
Программа кодирования                    : mkvmerge v5.8.0 ('No Sleep / Pillow') built on Sep  2 2012 15:37:04
Библиотека кодирования                   : libebml v1.2.3 + libmatroska v1.3.0
Видео
Идентификатор                            : 1
Формат                                   : AVC
Формат/Информация                        : Advanced Video Codec
Профиль формата                          : High@L3.1
Параметр CABAC формата                   : Да
Параметр ReFrames формата                : 4 кадра
Идентификатор кодека                     : V_MPEG4/ISO/AVC
Продолжительность                        : 2 ч. 26 м.
Битрейт                                  : 3894 Кбит/сек
Ширина                                   : 1264 пикселя
Высота                                   : 528 пикселей
Соотношение сторон                       : 2,40:1
Соотношение сторон в оригинале           : 2,40:1
Режим частоты кадров                     : Постоянный
Частота кадров                           : 23,976 кадра/сек
Цветовое пространство                    : YUV
Субдискретизация насыщенности            : 4:2:0
Битовая глубина                          : 8 бит
Тип развёртки                            : Прогрессивная
Бит/(Пиксели*Кадры)                      : 0.243
Размер потока                            : 3,89 Гбайт (89%)
Библиотека кодирования                   : x264 core 129 r2230 1cffe9f
Настройки программы                      : cabac=1 / ref=3 / deblock=1:0:0 / analyse=0x3:0x113 / me=hex / subme=7 / psy=1 / psy_rd=1.00:0.00 / mixed_ref=1 / me_range=16 / chroma_me=1 / trellis=1 / 8x8dct=1 / cqm=0 / deadzone=21,11 / fast_pskip=1 / chroma_qp_offset=-2 / threads=6 / lookahead_threads=1 / sliced_threads=0 / nr=0 / decimate=1 / interlaced=0 / bluray_compat=0 / constrained_intra=0 / bframes=3 / b_pyramid=2 / b_adapt=1 / b_bias=0 / direct=1 / weightb=1 / open_gop=0 / weightp=2 / keyint=240 / keyint_min=23 / scenecut=40 / intra_refresh=0 / rc_lookahead=40 / rc=2pass / mbtree=1 / bitrate=3894 / ratetol=1.0 / qcomp=0.60 / qpmin=0 / qpmax=69 / qpstep=4 / cplxblur=20.0 / qblur=0.5 / ip_ratio=1.40 / aq=1:1.00
Язык                                     : English
Default                                  : Да
Forced                                   : Нет
Аудио
Идентификатор                            : 2
Формат                                   : AC-3
Формат/Информация                        : Audio Coding 3
Расширение режима                        : CM (complete main)
Параметр Endianness формата              : Big
Идентификатор кодека                     : A_AC3
Продолжительность                        : 2 ч. 26 м.
Вид битрейта                             : Постоянный
Битрейт                                  : 384 Кбит/сек
Каналы                                   : 6 каналов
Расположение каналов                     : Front: L C R, Side: L R, LFE
Частота                                  : 48,0 КГц
Битовая глубина                          : 16 бит
Метод сжатия                             : С потерями
Размер потока                            : 401 Мбайт (9%)
Default                                  : Да
Forced                                   : Нет
- -

Гарри Поттер и Дары смерти: Часть II / Harry Potter and the Deathly Hallows: Part 2 (2011)

-Гарри Поттер и Дары смерти: Часть II / Harry Potter and the Deathly Hallows: Part 2 - Название: Гарри Поттер и Дары смерти: Часть II
Оригинальное название: Harry Potter and the Deathly Hallows: Part 2
Год выхода: 2011
Выпущено: США
Жанр: фэнтези, приключения, семейный
Режиссер: Дэвид Йэтс / David Yates
Продолжительность: 02:10:26
Перевод: Профессиональный (дублированный) [лицензия]
В ролях:
Дэниэл Рэдклифф, Руперт Гринт, Эмма Уотсон, Рэйф Файнс, Алан Рикман, Хелена Бонем Картер, Том Фелтон, Гари Олдман, Майкл Гэмбон, Мэгги Смит
О фильме:
В грандиозной последней главе битва между добрыми и злыми силами мира волшебников перерастает во всеобщую войну. Ставки ещё никогда не были так высоки, а поиск убежища - столь сложен. И быть может именно Гарри Поттеру придется пожертвовать всем в финальном сражении с Волан-де-Мортом. Способен ли наш герой спасти мир? И всё закончится здесь.

- бюджет: 125 000 000
сборы в США: 381 011 219
сборы в мире: 1 328 111 219
сборы в России: 37 185 546
зрители: 48 млн | 12,1 млн | 10,4 млн
-Файл:
Качество: BDRip [720p]
Видео: 1280x528, 4408 Кбит/сек, 23,976 кадр/сек, AVC, x264, 2,40:1, 0.272 Бит/[Пиксели*Кадры], 2pass
Аудио: AC-3, 384 Кбит/сек, 6 канала(ов), 48,0 КГц
-

MI

Формат                                   : Matroska
Версия формата                           : Version 2
Размер файла                             : 4,37 Гбайт
Продолжительность                        : 2 ч. 10 м.
Общий поток                              : 4793 Кбит/сек
Дата кодирования                         : UTC 2013-01-06 19:06:53
Программа кодирования                    : mkvmerge v5.8.0 ('No Sleep / Pillow') built on Sep  2 2012 15:37:04
Библиотека кодирования                   : libebml v1.2.3 + libmatroska v1.3.0
Видео
Идентификатор                            : 1
Формат                                   : AVC
Формат/Информация                        : Advanced Video Codec
Профиль формата                          : High@L3.1
Параметр CABAC формата                   : Да
Параметр ReFrames формата                : 4 кадра
Идентификатор кодека                     : V_MPEG4/ISO/AVC
Продолжительность                        : 2 ч. 10 м.
Битрейт                                  : 4408 Кбит/сек
Ширина                                   : 1280 пикселей
Высота                                   : 528 пикселей
Соотношение сторон                       : 2,40:1
Соотношение сторон в оригинале           : 2,40:1
Режим частоты кадров                     : Постоянный
Частота кадров                           : 23,976 кадра/сек
Цветовое пространство                    : YUV
Субдискретизация насыщенности            : 4:2:0
Битовая глубина                          : 8 бит
Тип развёртки                            : Прогрессивная
Бит/(Пиксели*Кадры)                      : 0.272
Размер потока                            : 3,93 Гбайт (90%)
Библиотека кодирования                   : x264 core 129 r2230 1cffe9f
Настройки программы                      : cabac=1 / ref=3 / deblock=1:0:0 / analyse=0x3:0x113 / me=hex / subme=7 / psy=1 / psy_rd=1.00:0.00 / mixed_ref=1 / me_range=16 / chroma_me=1 / trellis=1 / 8x8dct=1 / cqm=0 / deadzone=21,11 / fast_pskip=1 / chroma_qp_offset=-2 / threads=6 / lookahead_threads=1 / sliced_threads=0 / nr=0 / decimate=1 / interlaced=0 / bluray_compat=0 / constrained_intra=0 / bframes=3 / b_pyramid=2 / b_adapt=1 / b_bias=0 / direct=1 / weightb=1 / open_gop=0 / weightp=2 / keyint=240 / keyint_min=23 / scenecut=40 / intra_refresh=0 / rc_lookahead=40 / rc=2pass / mbtree=1 / bitrate=4408 / ratetol=1.0 / qcomp=0.60 / qpmin=0 / qpmax=69 / qpstep=4 / cplxblur=20.0 / qblur=0.5 / ip_ratio=1.40 / aq=1:1.00
Язык                                     : English
Default                                  : Да
Forced                                   : Нет
Аудио
Идентификатор                            : 2
Формат                                   : AC-3
Формат/Информация                        : Audio Coding 3
Расширение режима                        : CM (complete main)
Параметр Endianness формата              : Big
Идентификатор кодека                     : A_AC3
Продолжительность                        : 2 ч. 10 м.
Вид битрейта                             : Постоянный
Битрейт                                  : 384 Кбит/сек
Каналы                                   : 6 каналов
Расположение каналов                     : Front: L C R, Side: L R, LFE
Частота                                  : 48,0 КГц
Битовая глубина                          : 16 бит
Метод сжатия                             : С потерями
Размер потока                            : 358 Мбайт (8%)
Default                                  : Да
Forced                                   : Нет
- -
[Профиль] [ЛС]
Кто просматривает тему:

Форум Тема Автор Размер
Фильмы 2011 года Безнадега / Отчаяние / Обреченность / Desperation (Мик Гаррис / Mick Garris) [2006, США, ужасы, фэнтези, триллер, DVDRip] MVO (ТВ-3) + DVO (НТВ+) + AVO (Андрей Гаврилов) + AVO (Михаил Иванов) TorrentFilm 2.34 GB
Отечественные мультфильмы Брак (Гарри Бардин) [1987 г., Мультфильм, для взрослых, драма, DVDRip] painkiller 181 MB
Спортивные фильмы и передачи Величайшие футболисты. Гарринча / The greatest footballers (2015) HDTV 1080i достали все 1.41 GB
Отечественные мультфильмы Выкрутасы (Гарри Бардин) [1987 г., Мультфильм, для взрослых, драма, DVDRip] TorrentFilm 182 MB
Фантастика, фэнтези Гарри Гаррисон - Собрание сочинений (178 книг) [1951-2015, Боевая фантастика, Космоопера, FB2] Garik014 80 MB
Фантастика, фэнтези Гарри Гаррисон - Цикл "Мир Смерти" (1972-2014) FB2 достали все 10 MB
Антологии Гарри Поттер - Антология (2001-2009) PC Russian Mafia 4.36 GB
Зарубежные Гарри Поттер и Дары смерти в 3Д / Harry Potter and the Deathly Hallows 3D (Дэвид Йэтс / David Yates) [2010-2011, Фэнтези, детектив, приключения, BDremux, 1080p] BD3D [Re-Encode] TorrentFilm 68.61 GB
Показать сообщения:    

Текущее время: Сегодня 00:18

Часовой пояс: GMT



Вы не можете начинать темы
Вы не можете отвечать на сообщения
Вы не можете редактировать свои сообщения
Вы не можете удалять свои сообщения
Вы не можете голосовать в опросах
Вы не можете прикреплять файлы к сообщениям
Вы не можете скачивать файлы