Гармонист (Светлана Быченко) [2003, мультфильм рисованный, документальная сказка, WEBRip]

 
Автор Сообщение

TorrentFilm ®

Пол:

Стаж: 2 года

Сообщений: 7741



Награды: Нет

Торрент-статистика

Создавать темы 02-Янв-2016 00:11

[Цитировать]

Гармонист
Страна: Россия
Производство: Фонд социально-культурных программ "Губерния"
Жанр: мультфильм рисованный, документальная сказка
Продолжительность: 00:25:59
Год выпуска: 2003
Русские субтитры: нет
Режиссёр: Светлана Быченко
Песни исполняла: Тина Георгиевская
Описание: Вторая мировая война глазами ребенка. Простая история о том, как девочка победила войну. Приблизительно в середине 42-го года в деревне появляется гармонист на деревянной ноге. Девочке Полине кажется, что это колдун и что он увозит остальных людей на фронт в своей гармошке. И, хотя действие происходит в тылу, война живет в мировосприятии ребенка. Девочка решает по-своему бороться с войной, страстно желая сохранить счастье, и, кажется, что ее усилиями мужчины возвращаются в родной дом.
Качество: WEBRip
Формат: AVI
Видео: 640x480 (1.33:1), 25 fps, XviD MPEG-4 ~1101 kbps avg, 0.14 bit/pixel
Аудио: 48.0 kHz, MPEG Layer 3, 2 ch, ~128.00 kbps avg
Субтитры: Отсутствуют

Подробные технические данные

GeneralComplete name : E:\1\Гармонист 2003.aviFormat : AVIFormat/Info : Audio Video InterleaveFile size : 230 MiBDuration : 25mn 59sOverall bit rate : 1 239 KbpsWriting application : VirtualDubMod 1.5.10.3 | www.virtualdub-fr.org || (build 2550/release)Writing library : VirtualDubMod build 2550/release
VideoID : 0Format : MPEG-4 VisualFormat profile : Advanced Simple@L5Format settings, BVOP : 2Format settings, QPel : NoFormat settings, GMC : No warppointsFormat settings, Matrix : Default (H.263)Codec ID : XVIDCodec ID/Hint : XviDDuration : 25mn 59sBit rate : 1 101 KbpsWidth : 640 pixelsHeight : 480 pixelsDisplay aspect ratio : 4:3Frame rate : 25.000 fpsColor space : YUVChroma subsampling : 4:2:0Bit depth : 8 bitsScan type : ProgressiveCompression mode : LossyBits/(Pixel*Frame) : 0.143Stream size : 205 MiB (89%)Writing library : XviD 1.2.1 (UTC 2008-12-04)
AudioID : 1Format : MPEG AudioFormat version : Version 1Format profile : Layer 3Codec ID : 55Codec ID/Hint : MP3Duration : 25mn 58sBit rate mode : ConstantBit rate : 128 KbpsChannel count : 2 channelsSampling rate : 48.0 KHzCompression mode : LossyStream size : 23.8 MiB (10%)Alignment : Aligned on interleavesInterleave, duration : 40 ms (1.00 video frame)Interleave, preload duration : 504 msWriting library : LAME3.98rEncoding settings : -m s -V 4 -q 0 -lowpass 17 -b 128

Скриншоты

[Профиль] [ЛС]
Показать сообщения:    

Текущее время: Сегодня 10:17

Часовой пояс: GMT



Вы не можете начинать темы
Вы не можете отвечать на сообщения
Вы не можете редактировать свои сообщения
Вы не можете удалять свои сообщения
Вы не можете голосовать в опросах
Вы не можете прикреплять файлы к сообщениям
Вы не можете скачивать файлы