Гараж (1979) DVDRip-AVC

 
Автор Сообщение

Russian Mafia ®

Пол:

Стаж: 1 год 8 месяцев

Сообщений: 4247



Награды: 10 (Подробнее)

Top Releaser 5 (Количество: 1) За внесенный вклад в развитие сайта (Количество: 1) Mega Seeder 5 (Количество: 1)
Торрент-статистика

Создавать темы 10-Сен-2015 06:47

[Цитировать]

Страна: СССР
Производство: Мосфильм
Жанр: драма, комедия
Год выпуска: 1979
Продолжительность: 01:35:35
Перевод: не требуется
Оригинальная аудиодорожка: русский
Cубтитры: нет
Режиссер: Эльдар Рязанов
В ролях:
Лия Ахеджакова, Ия Саввина, Светлана Немоляева, Валентин Гафт, Андрей Мягков, Георгий Бурков, Леонид Марков, Вячеслав Невинный, Анастасия Вознесенская, Семен Фарада, Игорь Костолевский, Ольга Остроумова, Глеб Стриженов, Борислав Брондуков, Наталья Гурзо, Алла Будницкая, Вадим Захарченко, Михаил Кокшенов, Эдьдар Рязанов...
Описание:
Действие происходит в СССР в конце 1970-х годов в вымышленном НИИ «Охраны животных от окружающей среды». Сотрудники института организовали гаражный кооператив «Фауна», и сюжет фильма посвящён заседанию членов кооператива. По территории, где идёт строительство, должно пройти скоростное шоссе, в связи с чем необходимо сократить количество гаражей. На заседании пайщиков предстоит выбрать четырёх «крайних». Но выбора, в общем-то, и нет — руководство кооператива (Аникеева и Сидорин) уже составило список сокращаемых, который собранию надо лишь утвердить.
Голосование «списком» прошло бы гладко и больной вопрос удалось бы решить, если бы не активное сопротивление ущемленных (Хвостов, Фетисов, Якубов) и вмешательство одной из пайщиц кооператива — младшего научного сотрудника института Елены Павловны Малаевой (Лия Ахеджакова). Она решила, что правление поступило несправедливо и за каждого исключаемого из кооператива нужно голосовать отдельно. Ко всему прочему оказывается, что кто-то из участников собрания похитил ключ, запер дверь и никто не может покинуть помещение. Раздражённым участникам затянувшегося собрания поневоле приходится выслушать предложение Малаевой и продолжить заседание. Разбирательство с деятельностью правления приводит к тому, что на свет выходят неприглядные факты. В состав кооператива были приняты «блатные» — люди, ставшие пайщиками кооператива за взятку или по протекции (директор рынка Кушакова и сын Милосердова). Обстановка накаляется, так как часть «блатных» и четверка «обделенных» отнюдь не собираются сдавать свои позиции, требуя свои гаражи. Когда же ключ наконец находят, появляется плохая новость - у Аникеевой угнали машину. Так-как согласно уставу гаражного кооператива, человек не имеющий машины не может быть членом кооператива, Аникеева выбывает из игры и покидает помещение. Остальные тянут жребий (бумажки из шапки), так как один человек всё-таки лишний…- -Исходник: DVD5 R5
Тип релиза: DVDRip-AVC
Контейнер: MKV
Видео: 712->786x572 (1,374:1), 25 fps, H264 ~ 1730 kbps avg, 0.170 bit/pixel
Аудио: 48 kHz, Dolby AC3 5.1, 448 kbps

MediaInfo

Общее
Полное имя : Garazh.1979.DVDRip-AVC_[Youtracker]_by_AVP Studio.mkv
Формат : Matroska
Версия формата : Version 2
Размер файла : 1,46 Гбайт
Продолжительность : 1 ч. 35 м.
Общий поток : 2180 Кбит/сек
Дата кодирования : UTC 2013-10-14 11:52:54
Программа кодирования : mkvmerge v6.1.0 ('Old Devil') built on Mar 4 2013 09:10:42
Библиотека кодирования : libebml v1.3.0 + libmatroska v1.4.0
Видео
Идентификатор : 1
Формат : AVC
Формат/Информация : Advanced Video Codec
Профиль формата : High@L4.1
Параметр CABAC формата : Да
Параметр ReFrames формата : 6 кадров
Идентификатор кодека : V_MPEG4/ISO/AVC
Продолжительность : 1 ч. 35 м.
Битрейт : 1730 Кбит/сек
Ширина : 712 пикселей
Высота : 572 пикселя
Соотношение сторон : 1,374
Частота кадров : 25,000 кадров/сек
Цветовое пространство : YUV
Субдискретизация насыщенности : 4:2:0
Битовая глубина : 8 бит
Тип развёртки : Прогрессивная
Бит/(Пиксели*Кадры) : 0.170
Размер потока : 1,13 Гбайт (77%)
Библиотека кодирования : x264 core 138 r2356 a1d3d17
Настройки программы : cabac=1 / ref=6 / deblock=1:-2:-1 / analyse=0x3:0x113 / me=umh / subme=10 / psy=1 / psy_rd=1.00:0.05 / mixed_ref=1 / me_range=32 / chroma_me=1 / trellis=2 / 8x8dct=1 / cqm=0 / deadzone=21,11 / fast_pskip=0 / chroma_qp_offset=-3 / threads=3 / lookahead_threads=1 / sliced_threads=0 / nr=0 / decimate=0 / interlaced=0 / bluray_compat=0 / constrained_intra=0 / bframes=8 / b_pyramid=2 / b_adapt=2 / b_bias=0 / direct=3 / weightb=1 / open_gop=0 / weightp=2 / keyint=250 / keyint_min=25 / scenecut=40 / intra_refresh=0 / rc=2pass / mbtree=0 / bitrate=1730 / ratetol=1.0 / qcomp=0.60 / qpmin=0 / qpmax=69 / qpstep=4 / cplxblur=20.0 / qblur=0.5 / ip_ratio=1.40 / pb_ratio=1.30 / aq=1:1.00
Default : Да
Forced : Нет
Аудио
Идентификатор : 2
Формат : AC-3
Формат/Информация : Audio Coding 3
Расширение режима : CM (complete main)
Идентификатор кодека : A_AC3
Продолжительность : 1 ч. 35 м.
Вид битрейта : Постоянный
Битрейт : 448 Кбит/сек
Каналы : 6 каналов
Расположение каналов : Front: L C R, Side: L R, LFE
Частота : 48,0 КГц
Битовая глубина : 16 бит
Метод сжатия : С потерями
Размер потока : 306 Мбайт (21%)
Default : Да
Forced : Нет

Скриншоты

Интересные факты

В основу сюжета фильма легла реальная история — собрание гаражно-строительного кооператива Мосфильма, участником которого был Э. Рязанов. И так же, как в фильме, на собрании гаражно-строительного кооператива в связи со строительством трассы, которая должна была пройти по территории, выделенной ранее под строительство гаражей, решался вопрос об исключении нескольких «лишних» пайщиков. Неожиданное и парадоксальное поведение коллег глубоко поразило Рязанова и навело на мысль о написании сценария на основе произошедших событий. Строительство трассы, исключение части пайщиков, нелицеприятное поведение людей в сложившейся ситуации — реальные события.
Роль Сидорина режиссёр предлагал Анатолию Кузнецову, но за день до этого актёр дал согласие на участие в съемках чехословацкого фильма «Гордубал» и отказался. На эту роль претендовал Александр Ширвиндт, но он опаздывал на репетицию. Поэтому Рязанов пригласил Валентина Гафта.
[Профиль] [ЛС]
Показать сообщения:    

Текущее время: Сегодня 04:16

Часовой пояс: GMT



Вы не можете начинать темы
Вы не можете отвечать на сообщения
Вы не можете редактировать свои сообщения
Вы не можете удалять свои сообщения
Вы не можете голосовать в опросах
Вы не можете прикреплять файлы к сообщениям
Вы не можете скачивать файлы