Гангстер / American Gangster (Ридли Скотт / Ridley Scott) [2007, США, Драма, Криминал, BDRip] [Расширенная версия / Unrated Extended Cut] AVO (Юрий Сербин)

 
Автор Сообщение

sergej644 ®

Пол:

Стаж: 4 года 11 месяцев

Сообщений: 6035

Откуда: Soviet Union



Награды: Нет

Торрент-статистика

Создавать темы 16-Дек-2014 11:49

[Цитировать]

Гангстер
[Unrated Extended Edition]
American Gangster«Это случилось однажды в Америке...»- Страна: США
Жанр: драма, криминал, биография
Год выпуска: 2007
Продолжительность: 02:55:44-Перевод: Авторский (Сербин Юрий)
Субтитры: нет
Режиссер: Ридли Скотт / Ridley Scott
В ролях: Дензел Вашингтон, Рассел Кроу, Чиветель Эджиофор, Лимари Надаль, Джош Бролин, Арманд Ассанте, Роджер Гуэнвёр Смит, Руби Ди, Джон Хоукс, Юл Васкез-Описание: После смерти хозяина, Фрэнк Лукас, тихий водитель гарлемского преступного авторитета, решает создать собственную криминальную империю. Его специальность - героин, который он ввозит напрямую из Юго-Восточной Азии. Лукас считает себя бизнесменом и конкурирует с другими группировками по всем правилам рыночной экономики, предлагая более качественный продукт по более низкой цене. Зарабатывая миллион долларов в день и придерживаясь однажды установленных для себя правил игры, он становится идолом для всего Гарлема, но по следам Фрэнка уже идёт Ричи Робертс - редкий для Нью-Йорка образец честного полицейского, ненавидимого коллегами.-Расширенная, или, как ее еще называют, полная версия фильма. Добавлены эпизоды не вошедшие в театральную версию фильма, а также альтернативный финал.-
MPAA: R - Лицам до 17 лет обязательно присутствие взрослого-Качество: BDRip | Blu-ray CEE 1080p AVC DTS 5.1-HDBT | sample
Контейнер: AVI
Видео: XviD, 704x384 (16:9), 1573 kbps, 23,976 fps, 0,243 bpp
Аудио: AC3 / 2.0 / 48 kHz / 192 kbps / 16 bit-

Скриншоты

Media Info

General
Complete name : D:\my_rip\American.Gangster.2007.[Extended.Edition].BDRip.by.Дядя_Лёша.avi
Format : AVI
Format/Info : Audio Video Interleave
Format profile : OpenDML
File size : 2.18 GiB
Duration : 2h 55mn
Overall bit rate : 1 777 Kbps
Writing application : VirtualDubMod 1.5.10.3 | www.virtualdub-fr.org || (build 2550/release)
Writing library : VirtualDubMod build 2550/release
Video
ID : 0
Format : MPEG-4 Visual
Format profile : Advanced Simple@L5
Format settings, BVOP : 1
Format settings, QPel : No
Format settings, GMC : No warppoints
Format settings, Matrix : Custom
Codec ID : XVID
Codec ID/Hint : XviD
Duration : 2h 55mn
Bit rate : 1 573 Kbps
Width : 704 pixels
Height : 384 pixels
Display aspect ratio : 1.85:1
Frame rate : 23.976 fps
Color space : YUV
Chroma subsampling : 4:2:0
Bit depth : 8 bits
Scan type : Progressive
Compression mode : Lossy
Bits/(Pixel*Frame) : 0.243
Stream size : 1.93 GiB (89%)
Writing library : XviD 73
Audio
ID : 1
Format : AC-3
Format/Info : Audio Coding 3
Mode extension : CM (complete main)
Format settings, Endianness : Big
Codec ID : 2000
Duration : 2h 55mn
Bit rate mode : Constant
Bit rate : 192 Kbps
Channel(s) : 2 channels
Channel positions : Front: L R
Sampling rate : 48.0 KHz
Bit depth : 16 bits
Compression mode : Lossy
Stream size : 241 MiB (11%)
Alignment : Split accross interleaves
Interleave, duration : 42 ms (1.00 video frame)
Interleave, preload duration : 500 ms
--
[Профиль] [ЛС]
Кто просматривает тему:

Форум Тема Автор Размер
Pop (Pop/Rock) [CD] Григорий Лепс - Гангстер №1 - 2014, FLAC (image+.cue), lossless sergej644 472 MB
Документальные HD Discovery: Гангстеры дикой природы / Gangland Killers / 6 эпизодов (6) [2014, Документальный, познавательный, природа, HDTV 1080i] TorrentFilm 20.62 GB
Документальные HD Discovery: Гангстеры дикой природы / Gangland Killers / 6 эпизодов (6) [2014, Документальный, познавательный, природа, HDTVRip 720p] TorrentFilm 9.71 GB
Фильмы (HD Rips | 720p, 1080p) Гангста Love / Rob the Mob (2014) BDRip 1080p Russian Mafia 7.76 GB
Фильмы 2014 года Гангста Love / Rob the Mob (Рэймонд Де Фелитта / Raymond De Felitta) [2014 г., США, драма, криминал, BDRip-AVC] Dub + Original (Eng) + sub (rus) reversefile 1.46 GB
Фильмы 2014 года Гангста Love / Rob the Mob (Рэймонд Де Фелитта / Raymond De Felitta) [2014, США, драма, криминал, BDRip-AVC] Dub reversefile 748 MB
Фильмы 2014 года Гангста Love / Rob the Mob (Рэймонд Де Фелитта / Raymond De Felitta) [2014, США, драма, криминал, BDRip-AVC] Dub + Original (Eng) + sub (rus) reversefile 2.18 GB
Фильмы 2014 года Гангста Love / Rob the Mob (Рэймонд Де Фелитта / Raymond De Felitta) [2014, США, драма, криминал, BDRip] Dub + Original + subs (rus, eng, eng sdh) reversefile 2.18 GB
Показать сообщения:    

Текущее время: Сегодня 00:38

Часовой пояс: GMT



Вы не можете начинать темы
Вы не можете отвечать на сообщения
Вы не можете редактировать свои сообщения
Вы не можете удалять свои сообщения
Вы не можете голосовать в опросах
Вы не можете прикреплять файлы к сообщениям
Вы не можете скачивать файлы