Гангста Love / Rob the Mob (Рэймонд Де Фелитта / Raymond De Felitta) [2014, США, драма, криминал, BDRip-AVC] Dub + Original (Eng) + sub (rus)

 
Автор Сообщение

reversefile ®

Пол:

Стаж: 4 года 5 месяцев

Сообщений: 842

Откуда: ReverseFile.org



Награды: Нет

Торрент-статистика

Создавать темы 13-Авг-2014 01:01

[Цитировать]

Гангста Love
Rob the Mob
«Настоящая любовь. Легендарное ограбление»


Страна: США
Студия: Exchange, The
Жанр: драма, криминал
Год выпуска: 2014
Продолжительность: 01:44:11
Перевод: Профессиональный (полное дублирование) [Лицензия]
Cубтитры: Russian, English
Оригинальная аудиодорожка: English
Режиссер:
Рэймонд Де Фелитта / Raymond De Felitta
В ролях:
Майкл Питт, Нина Арианда, Энди Гарсиа, Рэй Романо, Берт Янг, Гриффин Данн, Майкл Рисполи, Аида Туртурро, Фрэнк Уэйли, Кэти Мориарти
Описание:
Парочка молодых влюбленных, мечтая скопить деньги на свадьбу, решает совершить серию дерзких ограблений клубов, где собираются мафиози. Их план прост — чтобы они ни натворили, мафия не будет жаловаться в полицию. Местные «братаны» не могут поверить своим глазам, когда их обчищают до нитки какие-то «сопляки». Больше того, случайно, у них похищают важную улику, которой очень интересуется ФБР. Теперь за налетчиками начинается настоящая охота…

IMDb
Kinopoisk.ru
Релиз:
Автор рипа: Stalker oK
Сэмпл: multi-up
Качество видео: BDRip-AVC [BDRemux 1080p]
Формат видео: MKV
Видео кодек: AVC
Аудио кодек: AC3
Видео: 2228 Кбит/сек, 1024*576 (16:9), в 23,976 кадр/сек, AVC
Аудио #1: Russian, 384 Кбит/сек, 48,0 КГц, 16 бит, 6 канала(ов), AC-3
Аудио #2: English, 384 Кбит/сек, 48,0 КГц, 16 бит, 6 канала(ов), AC-3

MediaInfo

Общее
Уникальный идентификатор : 238724631505949494913721977783318643509 (0xB398B10E888B1CDC88E2501ACFD28335)
Полное имя : O:\temp\Гангста Love Rob the Mob\Gangsta.Love.2014.BDRip-AVC.Dub.2.18Gb...stalkerok.new-team.mkv
Формат : Matroska
Размер файла : 2,18 Гбайт
Продолжительность : 1 ч. 44 м.
Общий поток : 2998 Кбит/сек
Название фильма : Rob the Mob (2014) (New-Team) (Rip by Stalker oK)
Дата кодирования : UTC 2014-07-14 16:34:59
Программа кодирования : mkvmerge v6.1.0 ('Old Devil') built on Mar 4 2013 09:10:42
Библиотека кодирования : libebml v1.3.0 + libmatroska v1.4.0
Видео
Идентификатор : 1
Формат : AVC
Формат/Информация : Advanced Video Codec
Профиль формата : High@L4.1
Параметр CABAC формата : Да
Параметр ReFrames формата : 12 кадры
Идентификатор кодека : V_MPEG4/ISO/AVC
Продолжительность : 1 ч. 44 м.
Битрейт : 2228 Кбит/сек
Ширина : 1024 пикс.
Высота : 576 пикс.
Соотношение сторон : 16:9
Частота кадров : 23,976 кадр/сек
Цветовое пространство : YUV
Подвыборка цветности : 4:2:0
Битовая глубина : 8 бит
Тип развёртки : Прогрессивная
Бит/(Пиксели*Кадры) : 0.158
Размер потока : 1,58 Гбайт (72%)
Библиотека кодирования : x264 core 142 r2431 ac76440
Настройки программы : cabac=1 / ref=12 / deblock=1:-3:-3 / analyse=0x3:0x133 / me=umh / subme=11 / psy=1 / psy_rd=1.03:0.08 / mixed_ref=1 / me_range=48 / chroma_me=1 / trellis=2 / 8x8dct=1 / cqm=0 / deadzone=21,11 / fast_pskip=0 / chroma_qp_offset=-3 / threads=12 / lookahead_threads=3 / sliced_threads=0 / nr=0 / decimate=0 / interlaced=0 / bluray_compat=0 / constrained_intra=0 / bframes=12 / b_pyramid=2 / b_adapt=2 / b_bias=0 / direct=3 / weightb=1 / open_gop=0 / weightp=2 / keyint=240 / keyint_min=23 / scenecut=40 / intra_refresh=0 / rc_lookahead=80 / rc=2pass / mbtree=1 / bitrate=2228 / ratetol=1.0 / qcomp=0.70 / qpmin=0 / qpmax=69 / qpstep=4 / cplxblur=20.0 / qblur=0.5 / vbv_maxrate=25000 / vbv_bufsize=30000 / nal_hrd=none / filler=0 / ip_ratio=1.40 / aq=2:0.90
Аудио #1
Идентификатор : 2
Формат : AC-3
Формат/Информация : Audio Coding 3
Расширение режима : CM (complete main)
Идентификатор кодека : A_AC3
Продолжительность : 1 ч. 44 м.
Вид битрейта : Постоянный
Битрейт : 384 Кбит/сек
Канал(ы) : 6 канала(ов)
Расположение каналов : Front: L C R, Side: L R, LFE
Частота : 48,0 КГц
Битовая глубина : 16 бит
Метод сжатия : С потерями
Размер потока : 286 Мбайт (13%)
Язык : Russian
Аудио #2
Идентификатор : 3
Формат : AC-3
Формат/Информация : Audio Coding 3
Расширение режима : CM (complete main)
Идентификатор кодека : A_AC3
Продолжительность : 1 ч. 44 м.
Вид битрейта : Постоянный
Битрейт : 384 Кбит/сек
Канал(ы) : 6 канала(ов)
Расположение каналов : Front: L C R, Side: L R, LFE
Частота : 48,0 КГц
Битовая глубина : 16 бит
Метод сжатия : С потерями
Размер потока : 286 Мбайт (13%)
Язык : English
Текст #1
Идентификатор : 4
Формат : UTF-8
Идентификатор кодека : S_TEXT/UTF8
Идентификатор кодека/Информация : UTF-8 Plain Text
Язык : Russian
Текст #2
Идентификатор : 5
Формат : UTF-8
Идентификатор кодека : S_TEXT/UTF8
Идентификатор кодека/Информация : UTF-8 Plain Text
Язык : English
Меню
00:00:00.000 : en:Chapter 01
00:08:36.849 : en:Chapter 02
00:16:10.761 : en:Chapter 03
00:25:03.251 : en:Chapter 04
00:32:48.341 : en:Chapter 05
00:42:56.574 : en:Chapter 06
00:50:36.700 : en:Chapter 07
00:58:07.567 : en:Chapter 08
01:07:19.702 : en:Chapter 09
01:15:25.521 : en:Chapter 10
01:23:28.586 : en:Chapter 11
01:39:38.472 : en:Chapter 12

Скриншоты

[Профиль] [ЛС]
Кто просматривает тему:

Форум Тема Автор Размер
Pop (Pop/Rock) [CD] Григорий Лепс - Гангстер №1 - 2014, FLAC (image+.cue), lossless sergej644 472 MB
Документальные HD Discovery: Гангстеры дикой природы / Gangland Killers / 6 эпизодов (6) [2014, Документальный, познавательный, природа, HDTV 1080i] TorrentFilm 20.62 GB
Документальные HD Discovery: Гангстеры дикой природы / Gangland Killers / 6 эпизодов (6) [2014, Документальный, познавательный, природа, HDTVRip 720p] TorrentFilm 9.71 GB
Фильмы (HD Rips | 720p, 1080p) Гангста Love / Rob the Mob (2014) BDRip 1080p Russian Mafia 7.76 GB
Фильмы 2014 года Гангста Love / Rob the Mob (Рэймонд Де Фелитта / Raymond De Felitta) [2014 г., США, драма, криминал, BDRip-AVC] Dub + Original (Eng) + sub (rus) reversefile 1.46 GB
Фильмы 2014 года Гангста Love / Rob the Mob (Рэймонд Де Фелитта / Raymond De Felitta) [2014, США, драма, криминал, BDRip-AVC] Dub reversefile 748 MB
Фильмы 2014 года Гангста Love / Rob the Mob (Рэймонд Де Фелитта / Raymond De Felitta) [2014, США, драма, криминал, BDRip] Dub + Original + subs (rus, eng, eng sdh) reversefile 2.18 GB
Фильмы 2014 года Гангста Love / Rob the Mob (Рэймонд Де Фелитта / Raymond De Felitta) [2014, США, Драма, Криминал, WEB-DLRip] Dub bot 1.36 GB
Показать сообщения:    

Текущее время: Сегодня 04:17

Часовой пояс: GMT



Вы не можете начинать темы
Вы не можете отвечать на сообщения
Вы не можете редактировать свои сообщения
Вы не можете удалять свои сообщения
Вы не можете голосовать в опросах
Вы не можете прикреплять файлы к сообщениям
Вы не можете скачивать файлы