Гангста Love / Rob the Mob (Рэймонд Де Фелитта / Raymond De Felitta) [2014, США, Драма, Криминал, WEB-DLRip] Dub

 
Автор Сообщение

Создавать темы 14-Июл-2014 09:08

-Гангста Love / Rob the Mob- Страна: США
Жанр: Драма, Криминал
Год выпуска: 2014
Продолжительность: 01:39:55
Перевод: Дублированный перевод (дубляж) - Чистый звук
Cубтитры: нет
Оригинальная аудиодорожка: нет
Режиссер: Рэймонд Де Фелитта / Raymond De Felitta
Студия: The Exchange
В ролях:
Майкл Питт, Нина Арианда, Энди Гарсиа, Рэй Романо, Берт Янг, Гриффин Данн, Майкл Рисполи, Аида Туртурро, Фрэнк Уэйли, Кэти Мориарти, Юл Васкес, Самира Уайли, Гилберт Сото, Мэттью Блумм, Мария Ди Анджелис, Брайан Дистанс, Элиезер Майер, Люк Фава, Айми Маллинз, Гарри Пасторе, Берни Рейчел, Силвестре Расук, Винсент Ривеццо, Джон Торми, Адам Трези, Волиеда Уэбб
Описание:
Парочка молодых влюбленных, мечтая скопить деньги на свадьбу, решает совершить серию дерзких ограблений клубов, где собираются мафиози. Их план прост — чтобы они ни натворили, мафия не будет жаловаться в полицию. Местные «братаны» не могут поверить своим глазам, когда их обчищают до нитки какие-то «сопляки». Больше того, случайно, у них похищают важную улику, которой очень интересуется ФБР. Теперь за налетчиками начинается настоящая охота…

Качество видео: WEB-DLRip
Формат видео: AVI
Видео: Xvid, 720x304, 25fps, 1665kbps
Аудио: Dolby AC3, 44100Hz, 2 channels, 192kbps

MediaInfo

General
Format : AVI
Format/Info : Audio Video Interleave
File size : 1.36 GiB
Duration : 1h 39mn
Overall bit rate : 1 942 Kbps
Writing application : VirtualDubMod 1.5.10.3 | www.virtualdub-fr.org || (build 2550/release)
Writing library : VirtualDubMod build 2550/release
Video
ID : 0
Format : MPEG-4 Visual
Codec ID : XVID
Codec ID/Hint : XviD
Duration : 1h 39mn
Bit rate : 1 665 Kbps
Width : 720 pixels
Height : 304 pixels
Display aspect ratio : 2.35:1
Frame rate : 25.000 fps
Color space : YUV
Chroma subsampling : 4:2:0
Compression mode : Lossy
Bits/(Pixel*Frame) : 0.304
Stream size : 1.16 GiB (86%)
Audio
ID : 1
Format : AC-3
Format/Info : Audio Coding 3
Codec ID : 2000
Duration : 1h 39mn
Bit rate mode : Constant
Bit rate : 192 Kbps
Channel(s) : 2 channels
Sampling rate : 44.1 KHz
Compression mode : Lossy
Stream size : 137 MiB (10%)
Alignment : Aligned on interleaves

Screenshot movie title

Screenshots

 
Кто просматривает тему:

Форум Тема Автор Размер
Pop (Pop/Rock) [CD] Григорий Лепс - Гангстер №1 - 2014, FLAC (image+.cue), lossless sergej644 472 MB
Документальные HD Discovery: Гангстеры дикой природы / Gangland Killers / 6 эпизодов (6) [2014, Документальный, познавательный, природа, HDTV 1080i] TorrentFilm 20.62 GB
Документальные HD Discovery: Гангстеры дикой природы / Gangland Killers / 6 эпизодов (6) [2014, Документальный, познавательный, природа, HDTVRip 720p] TorrentFilm 9.71 GB
Фильмы (HD Rips | 720p, 1080p) Гангста Love / Rob the Mob (2014) BDRip 1080p Russian Mafia 7.76 GB
Фильмы 2014 года Гангста Love / Rob the Mob (Рэймонд Де Фелитта / Raymond De Felitta) [2014 г., США, драма, криминал, BDRip-AVC] Dub + Original (Eng) + sub (rus) reversefile 1.46 GB
Фильмы 2014 года Гангста Love / Rob the Mob (Рэймонд Де Фелитта / Raymond De Felitta) [2014, США, драма, криминал, BDRip-AVC] Dub reversefile 748 MB
Фильмы 2014 года Гангста Love / Rob the Mob (Рэймонд Де Фелитта / Raymond De Felitta) [2014, США, драма, криминал, BDRip-AVC] Dub + Original (Eng) + sub (rus) reversefile 2.18 GB
Фильмы 2014 года Гангста Love / Rob the Mob (Рэймонд Де Фелитта / Raymond De Felitta) [2014, США, драма, криминал, BDRip] Dub + Original + subs (rus, eng, eng sdh) reversefile 2.18 GB
Показать сообщения:    

Текущее время: Сегодня 10:30

Часовой пояс: GMT



Вы не можете начинать темы
Вы не можете отвечать на сообщения
Вы не можете редактировать свои сообщения
Вы не можете удалять свои сообщения
Вы не можете голосовать в опросах
Вы не можете прикреплять файлы к сообщениям
Вы не можете скачивать файлы