Гаджьо / Gadzo (Сергей Пархоменко) [2014, Драма, DVB-AVC]

 
Автор Сообщение

TorrentFilm ®

Пол:

Стаж: 2 года

Сообщений: 7741



Награды: Нет

Торрент-статистика

Создавать темы 02-Янв-2015 00:01

[Цитировать]

Гаджьо / Gadzo
Страна: Украина
Жанр: Драма
Год выпуска: 2014
Продолжительность: 00:39:41
Перевод:Не требуется
Оригинальная аудиодорожка: Русский
Режиссёр: Сергей Пархоменко
В ролях: Сергей Пархоменко, Мишель Андраде
Описание: "Гаджьо" по-цыгански означает "чужой". Именно это название выбрал для своего фильма популярный рэп-исполнитель Серёга (Сергей Пархоменко), предстающий здесь одновременно в нескольких амплуа - автор сценария, режиссер, композитор и исполнитель главной роли.
По словам автора, "...это фильм о многом. Это кино о большой и чистой любви, но не только... Это фильм о сложности человеческого выбора. Это фильм о том, как неотвратимы последствия наших поступков. Это фильм о том, как сложно сделать шаг в неизвестное. Это фильм о том, как невероятно просто и сложно одновременно разом все поменять в своей жизни. Это фильм о том, как непросто, но необходимо довериться какой-то родной душе. Это фильм о жизни, но и о смерти тоже..."
Сэмпл: https://yadi.sk/i/eOpKosZwdfKrG
Качество видео: DVB
Формат видео:MPEG-PS
Видео: MPEG-2, 3824 Кбит/с, 704х576, 25 fps
Аудио: Русский, MP2, 2 ch, 256 Кбит/с , 44.1 KHz

MediaInfo

General
Complete name : Gazho.2014.DVB.Generalfilm.mpg
Format : MPEG-PS
File size : 1.06 GiB
Duration : 39mn 41s
Overall bit rate : 3 824 Kbps
Video
ID : 224 (0xE0)
Format : MPEG Video
Format version : Version 2
Format profile : Main@Main
Format settings, BVOP : Yes
Format settings, Matrix : Default
Duration : 39mn 41s
Bit rate mode : Variable
Bit rate : 3 492 Kbps
Nominal bit rate : 7 000 Kbps
Width : 704 pixels
Height : 576 pixels
Display aspect ratio : 4:3
Frame rate : 25.000 fps
Standard : PAL
Color space : YUV
Chroma subsampling : 4:2:0
Bit depth : 8 bits
Scan type : Progressive
Scan order : Bottom Field First
Bits/(Pixel*Frame) : 0.344
Stream size : 991 MiB (91%)
Audio
ID : 193 (0xC1)
Format : MPEG Audio
Format version : Version 1
Format profile : Layer 2
Duration : 39mn 41s
Bit rate mode : Constant
Bit rate : 256 Kbps
Channel(s) : 2 channels
Sampling rate : 44.1 KHz
Stream size : 72.7 MiB (7%)

Скриншот с названием фильма

Скриншоты



[Профиль] [ЛС]
Кто просматривает тему:

Показать сообщения:    

Текущее время: Сегодня 21:01

Часовой пояс: GMT



Вы не можете начинать темы
Вы не можете отвечать на сообщения
Вы не можете редактировать свои сообщения
Вы не можете удалять свои сообщения
Вы не можете голосовать в опросах
Вы не можете прикреплять файлы к сообщениям
Вы не можете скачивать файлы