В центре внимания / Spotlight (2015) BDRip HEVC 720p | P | Лицензия

 
Автор Сообщение

Russian Mafia ®

Пол:

Стаж: 1 год 8 месяцев

Сообщений: 4257



Награды: 10 (Подробнее)

Top Releaser 2 (Количество: 1) Mega Seeder 1 (Количество: 1) Top Releaser 3 (Количество: 1)
Торрент-статистика

Создавать темы 26-Апр-2016 08:18

[Цитировать]

Название: В центре внимания
Оригинальное название: Spotlight-Год выпуска: 2015
Страна: США, Канада
Жанр: триллер, драма, биография, история
Продолжительность: 02:09:08
Перевод: Многоголосый закадровый [лицензия]
Субтитры: Английские, Русские-В ролях: Марк Руффало, Майкл Китон, Рэйчел МакАдамс, Лив Шрайбер, Джон Слэттери, Стэнли Туччи, Брайан Д’Арси Джеймс, Елена Стайтелер, Джин Аморозо, Даг Мюррэй
Режиссёр: Том МакКарти-Описание: Основанная на реальных событиях история журналистского расследования одного из самых громких в истории США секс-скандалов. Корреспонденты бостонской газеты разоблачают случаи педофилии, в которых обвиняются представители Церкви...-Качество: BDRip, 720p, H.265
Формат: MKV
Видео кодек: x265
Аудио кодек: AC3
Видео: 1280x688, 23,976 fps, HEVC, ~2752 kbps
Аудио 1: Rus, 48 kHz/16-bit, AC3 5.1, ~448 kbps | Профессиональный многоголосый закадровый
Аудио 2: Eng, 48 kHz/16-bit, AC3 5.1, ~448 kbps | Оригинал
Навигация по главам: Присутствует-Автор рипа: Alex_A
Релиз от:
- - -

Внимание!

H.265/HEVC (High Efficiency Video Coding) - это новый стандарт кодирования видео.
Стандарт H.265/HEVC является логическим продолжением стандарта H.264/AVC (Advanced Video Coding), и характеризуется более эффективными алгоритмами сжатия, а также поддержкой высокого разрешения вплоть до 8K UHD (8192x4320). Первая версия стандарта H.265 была опубликована в начале 2013 года.
Рипы в фомате HEVC, в настоящее время не поддерживается большинством аппаратных проигрывателей.
Для корректного воспроизведения может потребоваться обновление ПО.
Владельцам несовместимого железа просьба не беспокоить, есть альтернативные релизы.

Медиаинфо

Общее
Уникальный идентификатор : 185228697921839107018653958534715005140 (0x8B59BFE50C6A98CA88419251F06DD8D4)
Полное имя : f:HEVCSpotlight (2015)Spotlight.2015.720p_HEVCCLUB.mkv
Формат : Matroska
Версия формата : Version 4 / Version 2
Размер файла : 3,36 Гбайт
Продолжительность : 2 ч. 9 м.
Общий поток : 3722 Кбит/сек
Название фильма : Spotlight (2015) - HEVC.CLUB
Дата кодирования : UTC 2016-04-25 17:38:44
Программа кодирования : mkvmerge v9.1.0 ('Little Earthquakes') 64bit
Библиотека кодирования : libebml v1.3.3 + libmatroska v1.4.4
Attachements : z_000.jpg
DURATION : 01:59:14.939000000
NUMBER_OF_FRAMES : 4800
NUMBER_OF_BYTES : 16532216
_STATISTICS_WRITING_APP : mkvmerge v9.1.0 ('Little Earthquakes') 64bit
_STATISTICS_WRITING_DATE_UTC : 2016-04-25 17:38:44
_STATISTICS_TAGS : BPS DURATION NUMBER_OF_FRAMES NUMBER_OF_BYTES
Видео
Идентификатор : 1
Формат : HEVC
Формат/Информация : High Efficiency Video Coding
Профиль формата : Main@L4.1@Main
Идентификатор кодека : V_MPEGH/ISO/HEVC
Битрейт : 2752 Кбит/сек
Ширина : 1280 пикселей
Высота : 688 пикселей
Соотношение сторон : 1,85:1
Режим частоты кадров : Переменный
Частота кадров в оригинале : 23,976 кадра/сек
Цветовое пространство : YUV
Субдискретизация насыщенности : 4:2:0
Битовая глубина : 8 бит
Заголовок : HEVC.CLUB
Библиотека кодирования : x265 1.9+87-9915f21db1c2:[Windows][GCC 5.3.0][64 bit] 8bit
Настройки программы : wpp / ctu=64 / min-cu-size=8 / max-tu-size=32 / tu-intra-depth=1 / tu-inter-depth=1 / me=3 / subme=6 / merange=92 / no-rect / no-amp / max-merge=2 / temporal-mvp / no-early-skip / rdpenalty=0 / no-tskip / no-tskip-fast / strong-intra-smoothing / no-lossless / no-cu-lossless / no-constrained-intra / no-fast-intra / open-gop / no-temporal-layers / interlace=0 / keyint=230 / min-keyint=23 / scenecut=40 / rc-lookahead=60 / lookahead-slices=0 / bframes=8 / bframe-bias=0 / b-adapt=2 / ref=5 / limit-refs=3 / no-limit-modes / weightp / weightb / aq-mode=1 / qg-size=32 / aq-strength=1.00 / cbqpoffs=0 / crqpoffs=0 / rd=3 / psy-rd=2.00 / rdoq-level=0 / psy-rdoq=0.00 / no-rd-refine / signhide / deblock=-2:-2 / sao / no-sao-non-deblock / b-pyramid / cutree / no-intra-refresh / rc=crf / crf=18.0 / qcomp=0.60 / qpmin=0 / qpmax=51 / qpstep=4 / vbv-maxrate=20000 / vbv-bufsize=20000 / crf-max=17.0 / ipratio=1.40 / pbratio=1.30
Default : Да
Forced : Нет
DURATION : 02:09:08.162000000
NUMBER_OF_FRAMES : 185770
NUMBER_OF_BYTES : 2718045665
_STATISTICS_WRITING_APP : mkvmerge v9.1.0 ('Little Earthquakes') 64bit
_STATISTICS_WRITING_DATE_UTC : 2016-04-25 17:38:44
_STATISTICS_TAGS : BPS DURATION NUMBER_OF_FRAMES NUMBER_OF_BYTES
Аудио #1
Идентификатор : 2
Формат : AC-3
Формат/Информация : Audio Coding 3
Расширение режима : CM (complete main)
Параметр Endianness формата : Big
Идентификатор кодека : A_AC3
Продолжительность : 2 ч. 9 м.
Вид битрейта : Постоянный
Битрейт : 448 Кбит/сек
Каналы : 6 каналов
Расположение каналов : Front: L C R, Side: L R, LFE
Частота : 48,0 КГц
Метод сжатия : С потерями
Размер потока : 414 Мбайт (12%)
Заголовок : MVO
Язык : Russian
Default : Да
Forced : Нет
DURATION : 02:09:08.160000000
NUMBER_OF_FRAMES : 242130
NUMBER_OF_BYTES : 433896960
_STATISTICS_WRITING_APP : mkvmerge v9.1.0 ('Little Earthquakes') 64bit
_STATISTICS_WRITING_DATE_UTC : 2016-04-25 17:38:44
_STATISTICS_TAGS : BPS DURATION NUMBER_OF_FRAMES NUMBER_OF_BYTES
Аудио #2
Идентификатор : 3
Формат : AC-3
Формат/Информация : Audio Coding 3
Расширение режима : CM (complete main)
Параметр Endianness формата : Big
Идентификатор кодека : A_AC3
Продолжительность : 2 ч. 9 м.
Вид битрейта : Постоянный
Битрейт : 448 Кбит/сек
Каналы : 6 каналов
Расположение каналов : Front: L C R, Side: L R, LFE
Частота : 48,0 КГц
Метод сжатия : С потерями
Размер потока : 414 Мбайт (12%)
Язык : English
Default : Нет
Forced : Нет
DURATION : 02:09:08.160000000
NUMBER_OF_FRAMES : 242130
NUMBER_OF_BYTES : 433896960
_STATISTICS_WRITING_APP : mkvmerge v9.1.0 ('Little Earthquakes') 64bit
_STATISTICS_WRITING_DATE_UTC : 2016-04-25 17:38:44
_STATISTICS_TAGS : BPS DURATION NUMBER_OF_FRAMES NUMBER_OF_BYTES
Текст #1
Идентификатор : 4
Формат : UTF-8
Идентификатор кодека : S_TEXT/UTF8
Идентификатор кодека/Информация : UTF-8 Plain Text
Язык : Russian
Default : Нет
Forced : Нет
Текст #2
Идентификатор : 5
Формат : UTF-8
Идентификатор кодека : S_TEXT/UTF8
Идентификатор кодека/Информация : UTF-8 Plain Text
Язык : English
Default : Нет
Forced : Нет
Текст #3
Идентификатор : 6
Формат : PGS
Режим смешивания : zlib
Идентификатор кодека : S_HDMV/PGS
Идентификатор кодека/Информация : Picture based subtitle format used on BDs/HD-DVDs
Заголовок : PGS
Язык : English
Default : Нет
Forced : Нет
Меню
00:00:00.000 : en:Chapter 1
00:08:20.750 : en:Chapter 2
00:14:30.536 : en:Chapter 3
00:21:51.519 : en:Chapter 4
00:27:38.907 : en:Chapter 5
00:35:48.772 : en:Chapter 6
00:45:38.986 : en:Chapter 7
00:49:12.199 : en:Chapter 8
00:53:21.156 : en:Chapter 9
00:59:36.573 : en:Chapter 10
01:05:29.217 : en:Chapter 11
01:10:47.535 : en:Chapter 12
01:17:30.688 : en:Chapter 13
01:23:30.047 : en:Chapter 14
01:30:03.148 : en:Chapter 15
01:34:27.495 : en:Chapter 16
01:42:52.541 : en:Chapter 17
01:50:57.943 : en:Chapter 18
01:55:50.110 : en:Chapter 19
02:01:30.575 : en:Chapter 20

Скриншоты

[Профиль] [ЛС]
Кто просматривает тему:

Показать сообщения:    

Текущее время: Сегодня 18:52

Часовой пояс: GMT



Вы не можете начинать темы
Вы не можете отвечать на сообщения
Вы не можете редактировать свои сообщения
Вы не можете удалять свои сообщения
Вы не можете голосовать в опросах
Вы не можете прикреплять файлы к сообщениям
Вы не можете скачивать файлы