В центре внимания / Spotlight (2015) BDRemux 1080p | P, A | Лицензия

 
Автор Сообщение

достали все ®

Пол:

Стаж: 1 год 8 месяцев

Сообщений: 6613



Награды: 12 (Подробнее)

Mega Seeder 2 (Количество: 1) Mega Releaser 3 (Количество: 1) Mega Releaser 2 (Количество: 1)
Торрент-статистика

Создавать темы 02-Апр-2016 03:54

[Цитировать]

Информация о фильме
Название: В центре внимания
Оригинальное название: Spotlight
Год выхода: 2015
Жанр: триллер, драма, биография, история
Режиссер: Том МакКарти
В ролях: Марк Руффало, Майкл Китон, Рэйчел МакАдамс, Лив Шрайбер, Джон Слэттери, Стэнли Туччи, Брайан Д’Арси Джеймс, Елена Стайтелер, Джин Аморозо, Даг Мюррэй
О фильме:
История о скандале, который потряс мир. Фильм основан на реальной истории о расследовании, проведенном журналистами газеты "The Boston Globe". В редакцию городской газеты из анонимного источника поступила информация о якобы имевших место случаях педофилии, которые происходят в местной митрополии. Служителей церкви аноним обвиняет в том, что те подвергают насилию детей, многие из которых – сироты. Однако доказательств нет, и ведущие журналисты приступают к расследованию. В назревающем скандале оказываются замешанными не только обычные священники, но и городской архиепископ. Не потому ли так неохотно идут на контакт свидетели, что попросту боятся?

Страна: США, Канада
Студия: Anonymous Content, First Look Media, Participant Media
Продолжительность: 02:08:31
Перевод: Профессиональный многоголосый (закадровый) Blu-ray RUS, Авторский одноголосый (закадровый) Дмитрий Есарев
Файл
Кодек: MPEG-4
Качество: BDRemux 1080p
Видео: 1920x1080, 31.2 Mbit/s, 23.976 fps
Звук:
Аудио #01: 48 kHz, AC3 Dolby Digital, 3/2 (L,C,R,l,r) + LFE ch, ~448 kbps |MVO, лицензия (Blu-Ray Rus)|
Аудио #02: 48 kHz, AC3 Dolby Digital, 3/2 (L,C,R,l,r) + LFE ch, ~640 kbps |AVO, Д.Есарев|
Аудио #03: 48 kHz, DTS, 3/2 (L,C,R,l,r) + LFE ch, ~1510 kbps |AVO, Д.Есарев|
Аудио #04: 48 kHz, DTS-HD MA, 3/2 (L,C,R,l,r) + LFE ch, ~3286 kbps |ORIGINAL|
Субтитры: Русские, английские
Релиз от:

Media-info

Формат : Matroska
Версия формата : Version 4 / Version 2
Размер файла : 33,5 Гбайт
Продолжительность : 2 ч. 9 м.
Режим общего битрейта : Переменный
Общий поток : 37,1 Мбит/сек
Название фильма : Spotlight.2015....BDREMUX.1080p (S)
Дата кодирования : UTC 2016-04-01 10:32:11
Программа кодирования : mkvmerge v8.3.0 ('Over the Horizon') 64bit
Библиотека кодирования : libebml v1.3.1 + libmatroska v1.4.2
Видео
Идентификатор : 1
Формат : AVC
Формат/Информация : Advanced Video Codec
Профиль формата : High@L4.1
Параметр CABAC формата : Да
Параметр ReFrames формата : 4 кадра
Параметр GOP формата : M=3, N=12
Идентификатор кодека : V_MPEG4/ISO/AVC
Продолжительность : 2 ч. 9 м.
Вид битрейта : Переменный
Битрейт : 31,2 Мбит/сек
Максимальный битрейт : 35,0 Мбит/сек
Ширина : 1920 пикселей
Высота : 1080 пикселей
Соотношение сторон : 16:9
Режим частоты кадров : Постоянный
Частота кадров : 23,976 (24000/1001) кадра/сек
Цветовое пространство : YUV
Субдискретизация насыщенности : 4:2:0
Битовая глубина : 8 бит
Тип развёртки : Прогрессивная
Бит/(Пиксели*Кадры) : 0.628
Размер потока : 28,2 Гбайт (84%)
Язык : English
Default : Да
Forced : Нет
Аудио #1
Идентификатор : 2
Формат : AC-3
Формат/Информация : Audio Coding 3
Расширение режима : CM (complete main)
Параметр Endianness формата : Big
Идентификатор кодека : A_AC3
Продолжительность : 2 ч. 9 м.
Вид битрейта : Постоянный
Битрейт : 448 Кбит/сек
Каналы : 6 каналов
Расположение каналов : Front: L C R, Side: L R, LFE
Частота : 48,0 КГц
Частота кадров : 31,250 кадров/сек (1536 spf)
Метод сжатия : С потерями
Размер потока : 414 Мбайт (1%)
Заголовок : MVO [Blu-Ray Rus]
Язык : Russian
Default : Да
Forced : Нет
Аудио #2
Идентификатор : 3
Формат : AC-3
Формат/Информация : Audio Coding 3
Расширение режима : CM (complete main)
Параметр Endianness формата : Big
Идентификатор кодека : A_AC3
Продолжительность : 2 ч. 9 м.
Вид битрейта : Постоянный
Битрейт : 640 Кбит/сек
Каналы : 6 каналов
Расположение каналов : Front: L C R, Side: L R, LFE
Частота : 48,0 КГц
Частота кадров : 31,250 кадров/сек (1536 spf)
Метод сжатия : С потерями
Размер потока : 591 Мбайт (2%)
Заголовок : AVO [ESAREV]
Язык : Russian
Default : Нет
Forced : Нет
Аудио #3
Идентификатор : 4
Формат : DTS
Формат/Информация : Digital Theater Systems
Режим : 16
Параметр Endianness формата : Big
Идентификатор кодека : A_DTS
Продолжительность : 2 ч. 9 м.
Вид битрейта : Постоянный
Битрейт : 1509 Кбит/сек
Каналы : 6 каналов
Расположение каналов : Front: L C R, Side: L R, LFE
Частота : 48,0 КГц
Частота кадров : 93,750 кадра/сек (512 spf)
Битовая глубина : 24 бит
Метод сжатия : С потерями
Размер потока : 1,36 Гбайт (4%)
Заголовок : AVO [ESAREV]
Язык : Russian
Default : Нет
Forced : Нет
Аудио #4
Идентификатор : 5
Формат : DTS
Формат/Информация : Digital Theater Systems
Профиль формата : MA / Core
Режим : 16
Параметр Endianness формата : Big
Идентификатор кодека : A_DTS
Продолжительность : 2 ч. 9 м.
Вид битрейта : Переменный / Постоянный
Битрейт : 3286 Кбит/сек / 1509 Кбит/сек
Каналы : 6 каналов
Расположение каналов : Front: L C R, Side: L R, LFE
Частота : 48,0 КГц
Частота кадров : 93,750 кадра/сек (512 spf)
Битовая глубина : 24 бит
Метод сжатия : Без потерь / Lossy
Размер потока : 2,96 Гбайт (9%)
Заголовок : ORIGINAL
Язык : English
Default : Нет
Forced : Нет
Текст #1
Идентификатор : 6
Формат : UTF-8
Идентификатор кодека : S_TEXT/UTF8
Идентификатор кодека/Информация : UTF-8 Plain Text
Продолжительность : 1 ч. 59 м.
Битрейт : 153 бит/сек
Count of elements : 2089
Размер потока : 134 Кбайт (0%)
Язык : Russian
Default : Нет
Forced : Нет
Текст #2
Идентификатор : 7
Формат : UTF-8
Идентификатор кодека : S_TEXT/UTF8
Идентификатор кодека/Информация : UTF-8 Plain Text
Продолжительность : 1 ч. 59 м.
Битрейт : 90 бит/сек
Count of elements : 2321
Размер потока : 79,1 Кбайт (0%)
Язык : English
Default : Нет
Forced : Нет
Текст #3
Идентификатор : 8
Формат : PGS
Режим смешивания : zlib
Идентификатор кодека : S_HDMV/PGS
Идентификатор кодека/Информация : Picture based subtitle format used on BDs/HD-DVDs
Продолжительность : 1 ч. 59 м.
Битрейт : 18,5 Кбит/сек
Count of elements : 4800
Размер потока : 15,8 Мбайт (0%)
Язык : English
Default : Нет
Forced : Нет
Меню
00:00:00.000 : en:Chapter 1
00:08:20.750 : en:Chapter 2
00:14:30.536 : en:Chapter 3
00:21:51.519 : en:Chapter 4
00:27:38.907 : en:Chapter 5
00:35:48.772 : en:Chapter 6
00:45:38.986 : en:Chapter 7
00:49:12.199 : en:Chapter 8
00:53:21.156 : en:Chapter 9
00:59:36.573 : en:Chapter 10
01:05:29.217 : en:Chapter 11
01:10:47.535 : en:Chapter 12
01:17:30.688 : en:Chapter 13
01:23:30.047 : en:Chapter 14
01:30:03.148 : en:Chapter 15
01:34:27.495 : en:Chapter 16
01:42:52.541 : en:Chapter 17
01:50:57.943 : en:Chapter 18
01:55:50.110 : en:Chapter 19
02:01:30.575 : en:Chapter 20

Скриншоты

[Профиль] [ЛС]
Кто просматривает тему:

Показать сообщения:    

Текущее время: Сегодня 04:28

Часовой пояс: GMT



Вы не можете начинать темы
Вы не можете отвечать на сообщения
Вы не можете редактировать свои сообщения
Вы не можете удалять свои сообщения
Вы не можете голосовать в опросах
Вы не можете прикреплять файлы к сообщениям
Вы не можете скачивать файлы