В финале Джон умрет / John Dies at the End (Дон Коскарелли / Don Coscarelli) [2012, США, ужасы, фэнтези, комедия, BDRip 1080p] MVO (Iron Sound) + DVO (den904, DeadSno) + VO (acolith) + Original (Eng) + Subs (Rus, Eng)

 
Автор Сообщение

Richi Keeper ®

Пол:

Стаж: 1 год 6 месяцев

Сообщений: 57

Откуда: Томская область



Награды: Нет

Торрент-статистика

Создавать темы 11-Июн-2015 19:43

[Цитировать]

В финале Джон умрет / John Dies at the End Страна: США
Студия: M3 Alliance, M3 Creative, ...
Жанр: ужасы, фэнтези, комедия
Год выпуска: 2012
Продолжительность: 01:39:32
Перевод:
  • Любительский (многоголосый закадровый) Студия «Iron Sound»
  • Любительский (двухголосый закадровый) den904, DeadSno // Перевод: Janetta
  • Одноголосый закадровый acolith
Cубтитры: русские (jerichOne, trashcan), английские, английские (SDH)
Оригинальная аудиодорожка: английский
Режиссер: Дон Коскарелли / Don Coscarelli
В ролях: Чейз Уильямсон, Роб Майес, Пол Джаматти, Клэнси Браун, Глинн Тёрмен, Даг Джонс, Дэниэл Робак, Фаббианн Терез, Джонни Уэстон, Джимми Вонг
Описание:
Новый препарат, наркотик, наводнил улицы, его действие — просто сумашествие, но есть один страшный побочный эффект — после употребления не все возвращаются в реальный мир людьми… Два друга, Джон и Дэвид, оказываются ввязаны в историю с адским препаратом и вынуждены противостоять надвигающемуся ужасу так спешащему выбраться в наш мир через эту дрянь.
- ||-Тип релиза: BDRip 1080p (рип от CHD)
Контейнер: MKV
Видео: AVC (x264), 1920x1080 (16:9) at 23,976 fps, 9880 Кbps, 0.199 bpp
Аудио 1: DTS; 1536 Kbps; CBR; 6 ch; 48 khz; 24 bit | MVO - Iron Sound |
Аудио 2: DTS; 1536 Kbps; CBR; 6 ch; 48 khz; 24 bit | DVO - den904, DeadSno |
Аудио 3: DTS; 1536 Kbps; CBR; 6 ch; 48 khz; 24 bit | VO - acolith |
Аудио 4: DTS; 1536 Kbps; CBR; 6 ch; 48 khz; 24 bit | Английский |
Формат субтитров: softsub (SRT)

Скриншоты || x264 Info || MediaInfo || NotesMediaInfo

Общее
Уникальный идентификатор                 : 178933703124706515432096491586221020382 (0x869D60B058145669B8F1B27D972494DE)
Полное имя                               : В финале Джон умрёт.2012.MVO.1080p.BluRay.x264-CHD.mkv
Формат                                   : Matroska
Версия формата                           : Version 4 / Version 2
Размер файла                             : 11,1 Гбайт
Продолжительность                        : 1 ч. 39 м.
Общий поток                              : 15,9 Мбит/сек
Название фильма                          : profile.php?mode=viewprofile&u=22488948
Дата кодирования                         : UTC 2013-04-09 14:38:58
Программа кодирования                    : mkvmerge v6.1.0 ('Old Devil') built on Mar  2 2013 14:32:37
Библиотека кодирования                   : libebml v1.3.0 + libmatroska v1.4.0
Видео
Идентификатор                            : 1
Формат                                   : AVC
Формат/Информация                        : Advanced Video Codec
Профиль формата                          : High@L4.1
Параметр CABAC формата                   : Да
Параметр ReFrames формата                : 4 кадра
Идентификатор кодека                     : V_MPEG4/ISO/AVC
Продолжительность                        : 1 ч. 39 м.
Битрейт                                  : 9880 Кбит/сек
Ширина                                   : 1920 пикселей
Высота                                   : 1080 пикселей
Соотношение сторон                       : 16:9
Режим частоты кадров                     : Постоянный
Частота кадров                           : 23,976 кадра/сек
Цветовое пространство                    : YUV
Субдискретизация насыщенности            : 4:2:0
Битовая глубина                          : 8 бит
Тип развёртки                            : Прогрессивная
Бит/(Пиксели*Кадры)                      : 0.199
Размер потока                            : 6,65 Гбайт (60%)
Библиотека кодирования                   : x264 core 125 r2208 d9d2288
Настройки программы                      : cabac=1 / ref=4 / deblock=1:-3:-3 / analyse=0x3:0x113 / me=umh / subme=10 / psy=1 / psy_rd=1.00:0.05 / mixed_ref=1 / me_range=32 / chroma_me=1 / trellis=2 / 8x8dct=1 / cqm=0 / deadzone=21,11 / fast_pskip=0 / chroma_qp_offset=-2 / threads=8 / lookahead_threads=1 / sliced_threads=0 / nr=0 / decimate=1 / interlaced=0 / bluray_compat=0 / constrained_intra=0 / bframes=5 / b_pyramid=2 / b_adapt=2 / b_bias=0 / direct=3 / weightb=1 / open_gop=0 / weightp=2 / keyint=250 / keyint_min=23 / scenecut=40 / intra_refresh=0 / rc=2pass / mbtree=0 / bitrate=9880 / ratetol=1.0 / qcomp=0.70 / qpmin=0 / qpmax=69 / qpstep=4 / cplxblur=20.0 / qblur=0.5 / ip_ratio=1.40 / pb_ratio=1.30 / aq=2:1.00
Язык                                     : English
Default                                  : Да
Forced                                   : Нет
Аудио #1
Идентификатор                            : 2
Формат                                   : DTS
Формат/Информация                        : Digital Theater Systems
Режим                                    : 16
Параметр Endianness формата              : Big
Идентификатор кодека                     : A_DTS
Продолжительность                        : 1 ч. 39 м.
Вид битрейта                             : Постоянный
Битрейт                                  : 1510 Кбит/сек
Каналы                                   : 6 каналов
Расположение каналов                     : Front: L C R, Side: L R, LFE
Частота                                  : 48,0 КГц
Битовая глубина                          : 24 бит
Метод сжатия                             : С потерями
Размер потока                            : 1,05 Гбайт (9%)
Заголовок                                : MVO [Iron Sound]
Язык                                     : Russian
Default                                  : Да
Forced                                   : Нет
Аудио #2
Идентификатор                            : 3
Формат                                   : DTS
Формат/Информация                        : Digital Theater Systems
Режим                                    : 16
Параметр Endianness формата              : Big
Идентификатор кодека                     : A_DTS
Продолжительность                        : 1 ч. 39 м.
Вид битрейта                             : Постоянный
Битрейт                                  : 1510 Кбит/сек
Каналы                                   : 6 каналов
Расположение каналов                     : Front: L C R, Side: L R, LFE
Частота                                  : 48,0 КГц
Битовая глубина                          : 24 бит
Метод сжатия                             : С потерями
Размер потока                            : 1,05 Гбайт (9%)
Заголовок                                : DVO [den904, DeadSno]
Язык                                     : Russian
Default                                  : Нет
Forced                                   : Нет
Аудио #3
Идентификатор                            : 4
Формат                                   : DTS
Формат/Информация                        : Digital Theater Systems
Режим                                    : 16
Параметр Endianness формата              : Big
Идентификатор кодека                     : A_DTS
Продолжительность                        : 1 ч. 39 м.
Вид битрейта                             : Постоянный
Битрейт                                  : 1510 Кбит/сек
Каналы                                   : 6 каналов
Расположение каналов                     : Front: L C R, Side: L R, LFE
Частота                                  : 48,0 КГц
Битовая глубина                          : 24 бит
Метод сжатия                             : С потерями
Размер потока                            : 1,05 Гбайт (9%)
Заголовок                                : VO [acolith]
Язык                                     : Russian
Default                                  : Нет
Forced                                   : Нет
Аудио #4
Идентификатор                            : 5
Формат                                   : DTS
Формат/Информация                        : Digital Theater Systems
Режим                                    : 16
Параметр Endianness формата              : Big
Идентификатор кодека                     : A_DTS
Продолжительность                        : 1 ч. 39 м.
Вид битрейта                             : Постоянный
Битрейт                                  : 1509 Кбит/сек
Каналы                                   : 6 каналов
Расположение каналов                     : Front: L C R, Side: L R, LFE
Частота                                  : 48,0 КГц
Битовая глубина                          : 24 бит
Метод сжатия                             : С потерями
Размер потока                            : 1,05 Гбайт (9%)
Язык                                     : English
Default                                  : Нет
Forced                                   : Нет
Текст #1
Идентификатор                            : 6
Формат                                   : UTF-8
Идентификатор кодека                     : S_TEXT/UTF8
Идентификатор кодека/Информация          : UTF-8 Plain Text
Язык                                     : English
Default                                  : Нет
Forced                                   : Нет
Текст #2
Идентификатор                            : 7
Формат                                   : UTF-8
Идентификатор кодека                     : S_TEXT/UTF8
Идентификатор кодека/Информация          : UTF-8 Plain Text
Заголовок                                : SDH
Язык                                     : English
Default                                  : Нет
Forced                                   : Нет
Текст #3
Идентификатор                            : 8
Формат                                   : UTF-8
Идентификатор кодека                     : S_TEXT/UTF8
Идентификатор кодека/Информация          : UTF-8 Plain Text
Заголовок                                : [jerichOne, trashcan]
Язык                                     : Russian
Default                                  : Нет
Forced                                   : Нет
Меню
00:00:00.000                             : en:Chapter 1
00:08:34.347                             : en:Chapter 2
00:15:17.750                             : en:Chapter 3
00:21:53.145                             : en:Chapter 4
00:28:18.697                             : en:Chapter 5
00:35:29.878                             : en:Chapter 6
00:41:37.995                             : en:Chapter 7
00:49:26.422                             : en:Chapter 8
01:00:41.888                             : en:Chapter 9
01:09:51.020                             : en:Chapter 10
01:21:42.481                             : en:Chapter 11
01:33:09.000                             : en:Chapter 12

x264 Info

x264 [info]: frame I:1921 Avg QP:13.15 size:207054
x264 [info]: frame P:32335 Avg QP:15.37 size: 89522
x264 [info]: frame B:108951 Avg QP:17.33 size: 37446

-

Озвучено студией «Iron Sound»:

» Над релизом работали:Озвучено студией «Iron Sound»
Перевод - jerichOne, trashcan
Сведение и звукорежиссура - Екатерина Дмитрова (Inferno)
» Роли озвучивали:
Дэйвид Вонг - Игорь Шлыков (DIP)
Джон - Дмитрий Кущак
Арни Блондстоун - Дмитрий Сухоруков (Zahar)
Маркони, отец Шелнат и Прислужник Коррака - Алексей Щегорский
Детектив Лоуренс Эпплтон и скинхэд - Kapets
Брюс Мэттьюз и Роджер Норт - Валерий Нечай (Уби-Ван)
Эмми и женская массовка - Екатерина Дмитрова (Inferno)
Фред Чу и Коррак - Вячеслав Осипов (Sumbelka)
Джастин Уайт - Никита Рябых (MC Freeze)
Шелли Моррис и женская массовка - Надежда Серганова (Annakie)
Сержант Вэнс Макэлрой - Алексей Иванов (A'den Ne'tra)
Мясной монстр - Евгений Кокурин (JonEA)
Мужская массовка - Кирилл Макуха (oR1gam)
..........................................................................................................................................
[Профиль] [ЛС]
Кто просматривает тему:

Показать сообщения:    

Текущее время: Сегодня 03:25

Часовой пояс: GMT



Вы не можете начинать темы
Вы не можете отвечать на сообщения
Вы не можете редактировать свои сообщения
Вы не можете удалять свои сообщения
Вы не можете голосовать в опросах
Вы не можете прикреплять файлы к сообщениям
Вы не можете скачивать файлы