В Филадельфии всегда солнечно / It's Always Sunny in Philadelphia (2015) WEB-DLRip (сезон 10, серии 1 из 10) LostFilm (обновляемая)

 
Автор Сообщение

sergej644 ®

Пол:

Стаж: 4 года 11 месяцев

Сообщений: 6037

Откуда: Soviet Union



Награды: Нет

Торрент-статистика

Создавать темы 17-Янв-2015 19:42

[Цитировать]

-В Филадельфии всегда солнечно / It's Always Sunny in Philadelphia (2015) WEB-DLRip (сезон 10, серии 1 из 10)
«A Circle of Jerks»
- Страна: США
Жанр: комедия
Перевод: Многоголосый закадровый, профессиональный - LostFilm

Сэмпл
Режиссер: Тодд Бирман
Актеры: Чарли Дэй, Гленн Хоуертон, Роб МакЭлхенни, Кэйтлин Олсон, Дэнни ДеВито и др.
Описание фильма:
Комедийный сериал Роба МакЭлхенни повествует о четырех молодых друзьях - владельцах ирландского паба в депрессивном районе Филадельфии. Бизнес у ребят идет не слишком успешно, но это не мешает им регулярно находить приключения на отдельные части своего тела.
Главные герои ситкома - Мак, Чарли, Деннис и Ди - аморальны, беспринципны, неполиткорректны и готовы врать напропалую ради достижения собственных целей. К тому же постоянно "воюют" друг с другом. Впрочем, в большинстве случаев эти качества не приводят их ни к чему хорошему. В результате вся "шайка" регулярно попадает в самые нелепейшие ситуации. Одну из главных ролей в сериале исполнил Денни ДеВито.
Продолжительность: ~00:20:00 серия
Качество видео: WEB-DLRip
Видеокодек: XviD
Формат: AVI
Битрейт видео: ~1900 kb/s
Размер кадра: 720x400 (16:9)
Аудио Rus: (MPEG Layer 3, 48,0 kHz, 2 ch, 192 kb/s) - многоголосый закадровый

MediaInfo

Общее
Полное имя : D:\В Филадельфии всегда солнечно (сезон 10) (2015) WEB-DLRip - LostFilm\Its.Always.Sunny.in.Philadelphia.S10E01.rus.LostFilm.TV.avi
Формат : AVI
Формат/Информация : Audio Video Interleave
Размер файла : 311 Мбайт
Продолжительность : 20 м.
Режим общего битрейта : Переменный
Общий поток : 2117 Кбит/сек
Программа кодирования : Nandub v1.0rc2
Библиотека кодирования : Nandub build 1853/release
Видео
Идентификатор : 0
Формат : MPEG-4 Visual
Профиль формата : Advanced Simple@L5
Параметр BVOP формата : Нет
Параметр QPel формата : Нет
Параметр GMC формата : Без точки перехода
Параметр матрицы формата : Default (H.263)
Идентификатор кодека : XVID
Идентификатор кодека/Подсказка : XviD
Продолжительность : 20 м.
Битрейт : 1915 Кбит/сек
Ширина : 720 пикселей
Высота : 400 пикселей
Соотношение сторон : 16:9
Частота кадров : 23,976 кадра/сек
Цветовое пространство : YUV
Субдискретизация насыщенности : 4:2:0
Битовая глубина : 8 бит
Тип развёртки : Прогрессивная
Метод сжатия : С потерями
Бит/(Пиксели*Кадры) : 0.277
Размер потока : 281 Мбайт (90%)
Библиотека кодирования : XviD 1.2.1 (UTC 2008-12-04)
Аудио
Идентификатор : 1
Формат : MPEG Audio
Версия формата : Version 1
Профиль формата : Layer 3
Режим : Joint stereo
Расширение режима : MS Stereo
Идентификатор кодека : 55
Идентификатор кодека/Подсказка : MP3
Продолжительность : 20 м.
Вид битрейта : Переменный
Битрейт : 192 Кбит/сек
Каналы : 2 канала
Частота : 48,0 КГц
Метод сжатия : С потерями
Размер потока : 27,8 Мбайт (9%)
Выравнивание : Соединение по промежуткам
Продолжительность промежутка : 24 мс. (0,58 видеокадр)
Время предзагрузки промежутка : 477 мс.
Библиотека кодирования : LAME3.97b
Настройки программы : -m j -V 4 -q 3 -lowpass 18.6 --abr 192

Список серий


01. The Gang Beats Boggs / Шайка бьёт рекорд Боггса

Раздача ведётся путём добавления новых серий

Раздача ведётся путём добавления новых серий; при каждом добавлении создаётся новый торрент. Чтобы начать докачку новой серии, пользователям необходимо сделать следующее:
(1) остановить скачивание,
(2) удалить старый торрент у себя из клиента (старые серии удалять не надо),
(3) скачать новый торрент и запустить его у себя в клиенте вместо старого, при этом указать клиенту путь в старую папку куда и должно происходить скачивание новых серий.
Ваш клиент при этом должен произвести хеширование (проверку) старой папки (если не производит сам - помогите ему сделать это), и будет докачивать только те серии которых у вас ещё нет. Старые серии при этом не удаляются, а продолжают раздаваться!
Eсли вы уже удалили старые серии, то предотвратить повторную закачку старых серий можно, отжав галочку в соответствующих местах при запуске нового торрента. По возможности, желательно не удалять старые серии как можно дольше чтобы релизёр не столько продолжал раздавать старые серии, а смог сконцентрироваться на новых.
Скриншоты:
Время раздачи: 24/7 - круглосуточно (по возможности)
[Профиль] [ЛС]
Кто просматривает тему:

Показать сообщения:    

Текущее время: Сегодня 15:55

Часовой пояс: GMT



Вы не можете начинать темы
Вы не можете отвечать на сообщения
Вы не можете редактировать свои сообщения
Вы не можете удалять свои сообщения
Вы не можете голосовать в опросах
Вы не можете прикреплять файлы к сообщениям
Вы не можете скачивать файлы