В твоих глазах / In Your Eyes (2014) BDRip 1080p от NNNB | P

 
Автор Сообщение

Russian Mafia ®

Пол:

Стаж: 1 год 8 месяцев

Сообщений: 4257



Награды: 10 (Подробнее)

Mega Seeder 3 (Количество: 1) Top Releaser 3 (Количество: 1) За внесенный вклад в развитие сайта (Количество: 1)
Торрент-статистика

Создавать темы 09-Окт-2016 08:06

[Цитировать]

В твоих глазах / In Your Eyes
Русское название: В твоих глазах
Оригинальное название: In Your Eyes
Год выпуска: 2014
Жанр: фантастика, мелодрама
Выпущено: США
Режиссер: Брин Хилл
В ролях: Зои Казан , Майкл Сталь-Дэвид , Никки Рид , Стив Харрис , Марк Фойерстин , Дженнифер Грей , Стив Хоуи , Дэвид Галлахер , Рик Куррье , Престон Бэйли , Рид Бирни , Alexander Kravec
Перевод: Профессиональный многоголосый

Сюжет фильма:
Фильм рассказывает историю двух абсолютно разных людей, которые находятся в разных городах и ведут совершенно отличающуюся друг от друга жизнь. Но они оба имеют мощную связь между собой, и могут слышать и видеть друг друга на расстоянии.

Качество: BDRip 1080p
Формат: AVC (библиотека кодирования x.264)
Контейнер (Расширение): MKV
Видео: 1920x1080, 11868 Кбит/сек, 24 кадр/сек, 0,238 Бит/[Пиксели*Кадры]
Аудио №1: русский / AC3 / 5.1 / 48 kHz / 640 kbps / |Профессиональный многоголосый, FocusStudio|
Аудио №2: английский / AC3 / 5.1 / 48 kHz / 640 kbps /
Субтитры: русские (FocusStudio), английские, английские (SDH)
Навигация по главам(Чаптеры): есть
Продолжительность: 01:45:39Автор рипа: Сообщество:

MediaInfo

Format : Matroska
Format version : Version 2
File size : 9.70 GiB
Duration : 1 h 45 min
Overall bit rate : 13.1 Mb/s
Movie name : In Your Eyes.2014.BDRip.1080p.[denis100]
Encoded date : UTC 2016-10-09 07:07:27
Writing application : mkvmerge v5.8.0 ('No Sleep / Pillow') built on Sep 2 2012 15:37:04
Writing library : libebml v1.2.3 + libmatroska v1.3.0
Video
ID : 1
Format : AVC
Format/Info : Advanced Video Codec
Format profile : High@L4.1
Format settings, CABAC : Yes
Format settings, ReFrames : 4 frames
Codec ID : V_MPEG4/ISO/AVC
Duration : 1 h 45 min
Bit rate : 11.9 Mb/s
Width : 1 920 pixels
Height : 1 080 pixels
Display aspect ratio : 16:9
Frame rate mode : Constant
Frame rate : 24.000 FPS
Color space : YUV
Chroma subsampling : 4:2:0
Bit depth : 8 bits
Scan type : Progressive
Bits/(Pixel*Frame) : 0.238
Stream size : 8.56 GiB (88%)
Title : In Your Eyes.2014.BDRip.1080p.[denis100]
Writing library : x264 core 148 r2721 72d53ab
Encoding settings : cabac=1 / ref=4 / deblock=1:-3:-3 / analyse=0x3:0x133 / me=umh / subme=11 / psy=1 / psy_rd=1.00:0.05 / mixed_ref=1 / me_range=32 / chroma_me=1 / trellis=2 / 8x8dct=1 / cqm=0 / deadzone=21,11 / fast_pskip=0 / chroma_qp_offset=-3 / threads=6 / lookahead_threads=1 / sliced_threads=0 / nr=0 / decimate=1 / interlaced=0 / bluray_compat=0 / constrained_intra=0 / bframes=10 / b_pyramid=2 / b_adapt=2 / b_bias=0 / direct=3 / weightb=1 / open_gop=0 / weightp=2 / keyint=250 / keyint_min=24 / scenecut=40 / intra_refresh=0 / rc=2pass / mbtree=0 / bitrate=11868 / ratetol=1.0 / qcomp=0.60 / qpmin=0 / qpmax=69 / qpstep=4 / cplxblur=20.0 / qblur=0.5 / ip_ratio=1.40 / pb_ratio=1.30 / aq=2:0.90
Language : English
Default : Yes
Forced : No
Audio #1
ID : 2
Format : AC-3
Format/Info : Audio Coding 3
Mode extension : CM (complete main)
Format settings, Endianness : Big
Codec ID : A_AC3
Duration : 1 h 45 min
Bit rate mode : Constant
Bit rate : 640 kb/s
Channel(s) : 6 channels
Channel positions : Front: L C R, Side: L R, LFE
Sampling rate : 48.0 kHz
Frame rate : 31.250 FPS (1536 spf)
Compression mode : Lossy
Stream size : 484 MiB (5%)
Title : MVO, FocusStudio
Language : Russian
Default : Yes
Forced : No
Audio #2
ID : 3
Format : AC-3
Format/Info : Audio Coding 3
Mode extension : CM (complete main)
Format settings, Endianness : Big
Codec ID : A_AC3
Duration : 1 h 45 min
Bit rate mode : Constant
Bit rate : 640 kb/s
Channel(s) : 6 channels
Channel positions : Front: L C R, Side: L R, LFE
Sampling rate : 48.0 kHz
Frame rate : 31.250 FPS (1536 spf)
Compression mode : Lossy
Stream size : 484 MiB (5%)
Language : English
Default : No
Forced : No
Text #1
ID : 4
Format : UTF-8
Codec ID : S_TEXT/UTF8
Codec ID/Info : UTF-8 Plain Text
Title : FocusStudio
Language : Russian
Default : No
Forced : No
Text #2
ID : 5
Format : UTF-8
Codec ID : S_TEXT/UTF8
Codec ID/Info : UTF-8 Plain Text
Language : English
Default : No
Forced : No
Text #3
ID : 6
Format : UTF-8
Codec ID : S_TEXT/UTF8
Codec ID/Info : UTF-8 Plain Text
Title : SDH
Language : English
Default : No
Forced : No
Menu
00:00:00.000 : en:Chapter 1
00:11:01.541 : en:Chapter 2
00:21:33.958 : en:Chapter 3
00:29:34.500 : en:Chapter 4
00:39:58.416 : en:Chapter 5
00:50:09.083 : en:Chapter 6
00:59:42.000 : en:Chapter 7
01:08:45.416 : en:Chapter 8
01:20:01.708 : en:Chapter 9
01:31:03.458 : en:Chapter 10
01:41:27.375 : en:Chapter 11

x264

x264 [info]: frame I:976 Avg QP:16.34 size:179270
x264 [info]: frame P:39910 Avg QP:17.73 size: 86605
x264 [info]: frame B:111250 Avg QP:19.62 size: 51797

Bitrate Viewer

Скриншоты

[Профиль] [ЛС]
Кто просматривает тему:

Показать сообщения:    

Текущее время: Сегодня 07:14

Часовой пояс: GMT



Вы не можете начинать темы
Вы не можете отвечать на сообщения
Вы не можете редактировать свои сообщения
Вы не можете удалять свои сообщения
Вы не можете голосовать в опросах
Вы не можете прикреплять файлы к сообщениям
Вы не можете скачивать файлы