В твоих глазах / In Your Eyes (Брин Хилл / Brin Hill) [2014, США, драма, WEB-DLRip] VO

 
Автор Сообщение

reversefile ®

Пол:

Стаж: 4 года 5 месяцев

Сообщений: 842

Откуда: ReverseFile.org



Награды: Нет

Торрент-статистика

Создавать темы 25-Июл-2014 01:06

[Цитировать]

В твоих глазах / In Your Eyes- Год выпуска: 2014
Жанр: драма
Страна: США / Bellwether Pictures, Night and Day Pictures
Продолжительность: 01:45:44
Перевод: Одноголосый, закадровый - |Евгений Данилов| по субтитрам Oly_Sun
Cубтитры: нет-Режиссёр: Брин Хилл / Brin Hill-В ролях: Зои Казан, Майкл Сталь-Дэвид, Никки Рид, Стив Харрис, Марк Фойерстин, Дженнифер Грей, Стив Хоуи, Кресс Уильямс, Престон Бэйли, Рид Бирни, Лиз Стаубер, Браден Фицджералд, Том Чои, Стивен Тейлор, Джо Ангер, Тамара Хикки, Фред Стоверинк, Майк Йебба, Дакота Шепард, Тесс Деген, Джина Тлил, Шеннон Тюле, Кейт Лэйси-Описание: Фильм рассказывает историю двух абсолютно разных людей, которые находятся в разных городах и ведут совершенно отличающуюся друг от друга жизнь. Но они оба имеют мощную связь между собой, и могут слышать и видеть друг друга на расстоянии.- -Сэмпл: http://multi-up.com/988449-Качество: WEB-DLRip [исх. In.Your.Eyes.2014.1080p.WEB-DL.x264-PTP [PublicHD]]
Формат: AVI
Видео: 608x336 (1.80:1), 23.976 fps, XviD build 73 ~848 kbps avg, 0.17 bit/pixel
Аудио: 48 kHz, MPEG Layer 3, 2/0 (L,R) ch, ~128.00 kbps avg
-

Media Info

Формат                                   : AVI
Формат/Информация                        : Audio Video Interleave
Размер файла                             : 745 Мбайт
Продолжительность                        : 1 ч. 45 м.
Общий поток                              : 985 Кбит/сек
Программа кодирования                    : VirtualDubMod 1.5.10.3 | www.virtualdub-fr.org || (build 2550/release)
Библиотека кодирования                   : VirtualDubMod build 2550/release
Видео
Идентификатор                            : 0
Формат                                   : MPEG-4 Visual
Профиль формата                          : Advanced Simple@L5
Параметр BVOP формата                    : 1
Параметр QPel формата                    : Нет
Параметр GMC формата                     : Без точки перехода
Параметр матрицы формата                 : Выборочная
Идентификатор кодека                     : XVID
Идентификатор кодека/Подсказка           : XviD
Продолжительность                        : 1 ч. 45 м.
Битрейт                                  : 848 Кбит/сек
Ширина                                   : 608 пикселей
Высота                                   : 336 пикселей
Соотношение сторон                       : 16:9
Частота кадров                           : 23,976 кадра/сек
Цветовое пространство                    : YUV
Субдискретизация насыщенности            : 4:2:0
Битовая глубина                          : 8 бит
Тип развёртки                            : Прогрессивная
Метод сжатия                             : С потерями
Бит/(Пиксели*Кадры)                      : 0.173
Размер потока                            : 641 Мбайт (86%)
Библиотека кодирования                   : XviD 73
Аудио
Идентификатор                            : 1
Формат                                   : MPEG Audio
Версия формата                           : Version 1
Профиль формата                          : Layer 3
Идентификатор кодека                     : 55
Идентификатор кодека/Подсказка           : MP3
Продолжительность                        : 1 ч. 45 м.
Вид битрейта                             : Постоянный
Битрейт                                  : 128 Кбит/сек
Каналы                                   : 2 канала
Частота                                  : 48,0 КГц
Метод сжатия                             : С потерями
Размер потока                            : 96,8 Мбайт (13%)
Выравнивание                             : Соединение по промежуткам
Продолжительность промежутка             : 42  мс. (1,00 видеокадр)
Время предзагрузки промежутка            : 504  мс.

Скриншоты

[Профиль] [ЛС]
Кто просматривает тему:

Показать сообщения:    

Текущее время: Сегодня 10:49

Часовой пояс: GMT



Вы не можете начинать темы
Вы не можете отвечать на сообщения
Вы не можете редактировать свои сообщения
Вы не можете удалять свои сообщения
Вы не можете голосовать в опросах
Вы не можете прикреплять файлы к сообщениям
Вы не можете скачивать файлы