В стране невыученных уроков (1969) DVDRip-AVC от New-Team

 
Автор Сообщение

Белочка ®

Пол:

Стаж: 5 лет 1 месяц

Сообщений: 2089



Награды: 1 (Подробнее)

Girls (Количество: 1)
Торрент-статистика

Создавать темы 25-Окт-2014 15:26

[Цитировать]

Год выпуска: 1969
Страна: СССР
Жанр: мультфильм, короткометражка, семейный
Продолжительность: 00:19:06
Режиссеры: Юрий Прытков
Озвучивали: Анастасия Георгиевская, Алексей Грибов, Николай Литвинов, Анатолий Папанов, Клара Румянова, Мария Виноградова, Леонид Харитонов, Григорий Шпигель, Александр Баранов...
Описание: Сказка о скверном ученике. Маленький лодырь попадает в фантастическую страну, где сталкивается с причудливыми образами собственных невыученных уроков. На пути ему попадаются Полтора Землекопа из неверно решенной арифметической задачи и всевозможные нелепицы, порожденные его же собственными ошибками...- -Исходник: DVD5
Качество: DVDRip-AVC
Контейнер: MKV
Видео: 720x576@768x576, (4:3) 25.000 fps, H264 ~ 2000 Kbps, 0.193 bits/pixel
Аудио: 48.0 KHz, AC3, 6 ch, 448 Kbps

Отчёт MediaInfo

Общее
Уникальный идентификатор : 223649993257894404385192233160454304324 (0xA8416C0225419A5EAD028B65F2D1F244)
Полное имя : V.strane.nevyuchennyh.urokov.1969V.strane.nevyuchennyh.urokov.1969.DVDRip-AVC.mkv
Формат : Matroska
Версия формата : Version 2
Размер файла : 335 Мбайт
Продолжительность : 19 м.
Общий поток : 2450 Кбит/сек
Название фильма : В стране невыученных уроков AVP Studio
Дата кодирования : UTC 2012-06-06 22:14:47
Программа кодирования : mkvmerge v5.6.0 ('Kenya Kane') built on May 27 2012 16:44:04
Библиотека кодирования : libebml v1.2.3 + libmatroska v1.3.0
Видео
Идентификатор : 1
Формат : AVC
Формат/Информация : Advanced Video Codec
Профиль формата : High@L3.0
Параметр CABAC формата : Да
Параметр ReFrames формата : 8 кадров
Идентификатор кодека : V_MPEG4/ISO/AVC
Продолжительность : 19 м.
Битрейт : 2000 Кбит/сек
Ширина : 720 пикселей
Высота : 576 пикселей
Соотношение сторон : 4:3
Соотношение сторон в оригинале : 5:4
Частота кадров : 25,000 кадров/сек
Стандарт вещания : PAL
Цветовое пространство : YUV
Субдискретизация насыщенности : 4:2:0
Битовая глубина : 8 бит
Тип развёртки : Прогрессивная
Бит/(Пиксели*Кадры) : 0.193
Размер потока : 267 Мбайт (80%)
Заголовок : Источник DVD
Библиотека кодирования : x264 core 56 svn-680
Настройки программы : cabac=1 / ref=10 / deblock=1:-2:-1 / analyse=0x3:0x133 / me=umh / subme=9 / brdo=0 / mixed_ref=0 / me_range=32 / chroma_me=1 / trellis=0 / 8x8dct=1 / cqm=0 / deadzone=21,11 / chroma_qp_offset=0 / threads=1 / nr=0 / decimate=1 / mbaff=0 / bframes=3 / b_pyramid=1 / b_adapt=1 / b_bias=0 / direct=1 / wpredb=1 / bime=0 / keyint=250 / keyint_min=25 / scenecut=40 / rc=2pass / bitrate=2000 / ratetol=1.0 / rceq='blurCplx^(1-qComp)' / qcomp=0.60 / qpmin=10 / qpmax=51 / qpstep=4 / cplxblur=20.0 / qblur=0.5 / ip_ratio=1.40 / pb_ratio=1.30
Язык : Russian
Default : Да
Forced : Нет
Аудио
Идентификатор : 2
Формат : AC-3
Формат/Информация : Audio Coding 3
Расширение режима : CM (complete main)
Идентификатор кодека : A_AC3
Продолжительность : 19 м.
Вид битрейта : Постоянный
Битрейт : 448 Кбит/сек
Каналы : 6 каналов
Расположение каналов : Front: L C R, Side: L R, LFE
Частота : 48,0 КГц
Битовая глубина : 16 бит
Метод сжатия : С потерями
Размер потока : 61,2 Мбайт (18%)
Заголовок : Источник DVD
Язык : Russian
Default : Да
Forced : Нет

Скриншоты

Это интересно

Не мог не озаглавить знаменитой цитатой, ведь «В стране невыученных уроков» по-своему легендарное произведение Лии Гераскиной, на основе которого создан мультфильм продолжительностью 19 минут. Собственно, в книге событий столько, что их, с оговорками, хватило бы и на полнометражную мультипликацию. Но вместо этого зритель получил самые лучшие выдержки из сказки: полтора землекопа, ключик/замочек, «казнить нельзя помиловать». Но всё равно нет многих ошибок, а, следовательно, какая-то толика мудрости, вложенной автором в своё творение, не передана.
Тем не менее выполненный цветными карандашами мультфильм не является пустой тратой времени. Мы наблюдаем, как лодырь Виктор Перестукин вырабатывает сильную волю и учится за те 4 часа, что у него есть, чтобы добраться до Дворца грамматики. При этом легко узнаются голоса известных актёров и актрис (у всех здесь заведомо больше, чем одна роль — ведь разговаривают даже коты, коровы и медведи), поработавших над фильмом. Собственно, это залог успеха советских мультфильмов, ни один из которых не должен быть забыт. Ибо в каждом из них есть мудрые мысли. Как та, что в заголовке.
[Профиль] [ЛС]
Кто просматривает тему:

Показать сообщения:    

Текущее время: Сегодня 20:33

Часовой пояс: GMT



Вы не можете начинать темы
Вы не можете отвечать на сообщения
Вы не можете редактировать свои сообщения
Вы не можете удалять свои сообщения
Вы не можете голосовать в опросах
Вы не можете прикреплять файлы к сообщениям
Вы не можете скачивать файлы