В случае убийства набирайте «М» в 3Д / Dial M for Murder 3D (Альфред Хичкок / Alfred Hitchcock) [1954, триллер, криминал, детектив, BDrip-avc] Half OverUnder / Вертикальная анаморфная стереопара

 
Автор Сообщение

TorrentFilm ®

Пол:

Стаж: 2 года

Сообщений: 7741



Награды: Нет

Торрент-статистика

Создавать темы 01-Янв-2016 00:08

[Цитировать]

В случае убийства набирайте «М» / Dial M for Murder
«Kiss By Kiss...Supreme Suspense Unfurls!»
Год выпуска: 1954
Страна: США
Студия:
Жанр: триллер, криминал, детектив
Продолжительность: 01:45:24
Перевод: Профессиональный (многоголосый закадровый)
Русские субтитры: есть
Режиссер на русском: Альфред Хичкок
Режиссер на английском: Alfred HitchcockВ ролях:Рэй Миллэнд, Грэйс Келли, Роберт Каммингс, Джон Уильямс, Энтони Доусон, Лео Бритт, Патрик Аллен, Джордж Ли, Джордж Олдерсон, Робин ХьюзОписание:Тони Вендис, бывший плейбой и звезда большого тенниса, прожигающий деньги своей красавицы-жены Марго, решается на преступление, когда узнает, что может лишиться ее миллионов,
так как Марго увлеклась американским писателем детективных романов Марком Холлидэем.
Тони придумывает план идеального убийства, находит надежного исполнителя и организует себе безупречное алиби. Он предусматривает все, кроме необычного поведения Марго и аналитических способностей Марка…
--

--Качество: BDrip
Контейнер: MKV
Формат 3D: Half OverUnder / Вертикальная анаморфная стереопара
Порядок ракурсов: левый ракурс первый
Видео кодек: x264
Аудио кодек: AC3
Видео: AVC / 23,976 fps / 1920х1080p / 17.1Mbps
Аудио #1: Русский / AC3 / 48 KHz / 2.0 ch / 192 Kbps (MVO)
Аудио #2: Английский / AC3 / 48 KHz / 1.0 ch / 448 Kbps
Субтитры: Rus/Eng
MediaInfo
Общее
Уникальный идентификатор : 185743105537892236585215307602797570239 (0x8BBCD225F88F5E02A1246D7C6134A8BF)
Полное имя : E:\3Д фильмы\DialMforMurder.3D.1954.BD3DRip.Half.OU.x264.AC3.Rus.Eng.3D-RuGroup(m@rik05).mkv
Формат : Matroska
Версия формата : Version 2
Размер файла : 13,3 Гбайт
Продолжительность : 1 ч. 45 м.
Общий поток : 18,1 Мбит/сек
Название фильма : Dial M for Murder (1954)
Дата кодирования : UTC 2012-10-24 09:36:06
Программа кодирования : mkvmerge v3.4.0 ('Rapunzel') сборка от May 15 2010 09:38:20
Библиотека кодирования : libebml v0.8.0 + libmatroska v0.9.0
Видео
Идентификатор : 1
Формат : AVC
Формат/Информация : Advanced Video Codec
Профиль формата : High@L4.1
Параметр CABAC формата : Да
Параметр ReFrames формата : 4 кадра
Идентификатор кодека : V_MPEG4/ISO/AVC
Продолжительность : 1 ч. 45 м.
Битрейт : 17,1 Мбит/сек
Ширина : 1920 пикселей
Высота : 1080 пикселей
Соотношение сторон : 16:9
Режим частоты кадров : Постоянный
Частота кадров : 23,976 кадра/сек
Цветовое пространство : YUV
Субдискретизация насыщенности : 4:2:0
Битовая глубина : 8 бит
Тип развёртки : Прогрессивная
Бит/(Пиксели*Кадры) : 0.344
Размер потока : 12,6 Гбайт (94%)
Библиотека кодирования : x264 core 116 r2074 2641b9e
Настройки программы : cabac=1 / ref=4 / deblock=1:-3:-3 / analyse=0x3:0x133 / me=umh / subme=9 / psy=1 / psy_rd=1.00:0.15 / mixed_ref=1 / me_range=16 / chroma_me=1 / trellis=2 / 8x8dct=1 / cqm=0 / deadzone=21,11 / fast_pskip=1 / chroma_qp_offset=-3 / threads=6 / sliced_threads=0 / nr=0 / decimate=1 / interlaced=0 / bluray_compat=0 / constrained_intra=0 / bframes=6 / b_pyramid=2 / b_adapt=2 / b_bias=0 / direct=3 / weightb=1 / open_gop=0 / weightp=2 / keyint=250 / keyint_min=23 / scenecut=40 / intra_refresh=0 / rc_lookahead=60 / rc=crf / mbtree=1 / crf=20.0 / qcomp=0.70 / qpmin=0 / qpmax=69 / qpstep=4 / vbv_maxrate=50000 / vbv_bufsize=50000 / crf_max=0.0 / nal_hrd=none / ip_ratio=1.40 / aq=1:0.80
Язык : English
Default : Нет
Forced : Нет
Аудио #1
Идентификатор : 2
Формат : AC-3
Формат/Информация : Audio Coding 3
Расширение режима : CM (complete main)
Параметр Endianness формата : Big
Идентификатор кодека : A_AC3
Продолжительность : 1 ч. 45 м.
Вид битрейта : Постоянный
Битрейт : 192 Кбит/сек
Каналы : 2 канала
Расположение каналов : Front: L R
Частота : 48,0 КГц
Битовая глубина : 16 бит
Метод сжатия : С потерями
Размер потока : 145 Мбайт (1%)
Заголовок : MVO
Язык : Russian
Default : Да
Forced : Да
Аудио #2
Идентификатор : 3
Формат : AC-3
Формат/Информация : Audio Coding 3
Расширение режима : CM (complete main)
Параметр Endianness формата : Big
Идентификатор кодека : A_AC3
Продолжительность : 1 ч. 45 м.
Вид битрейта : Постоянный
Битрейт : 448 Кбит/сек
Каналы : 1 канал
Расположение каналов : Front: C
Частота : 48,0 КГц
Битовая глубина : 16 бит
Метод сжатия : С потерями
Размер потока : 338 Мбайт (2%)
Заголовок : orinal
Язык : English
Default : Нет
Forced : Нет
Текст #1
Идентификатор : 4
Формат : UTF-8
Идентификатор кодека : S_TEXT/UTF8
Идентификатор кодека/Информация : UTF-8 Plain Text
Язык : Russian
Default : Нет
Forced : Нет
Текст #2
Идентификатор : 5
Формат : UTF-8
Идентификатор кодека : S_TEXT/UTF8
Идентификатор кодека/Информация : UTF-8 Plain Text
Язык : English
Default : Нет
Forced : Нет
Меню
00:00:00.000 : en:00:00:00.000
00:01:09.069 : en:00:01:09.069
00:06:54.331 : en:00:06:54.331
00:08:49.529 : en:00:08:49.529
00:10:53.653 : en:00:10:53.653
00:13:53.708 : en:00:13:53.708
00:18:51.464 : en:00:18:51.464
00:24:25.172 : en:00:24:25.172
00:29:52.958 : en:00:29:52.958
00:33:10.989 : en:00:33:10.989
00:39:06.344 : en:00:39:06.344
00:42:15.950 : en:00:42:15.950
00:46:44.552 : en:00:46:44.552
00:50:32.655 : en:00:50:32.655
00:53:34.211 : en:00:53:34.211
00:54:21.175 : en:00:54:21.175
00:59:40.702 : en:00:59:40.702
01:03:09.953 : en:01:03:09.953
01:07:11.736 : en:01:07:11.736
01:12:02.318 : en:01:12:02.318
01:13:04.880 : en:01:13:04.880
01:18:43.302 : en:01:18:43.302
01:21:47.444 : en:01:21:47.444
01:27:37.836 : en:01:27:37.836
01:33:26.226 : en:01:33:26.226
01:36:06.719 : en:01:36:06.719
01:41:03.349 : en:01:41:03.349
01:43:52.351 : en:01:43:52.351

Скриншоты

[Профиль] [ЛС]
Кто просматривает тему:

Показать сообщения:    

Текущее время: Сегодня 04:16

Часовой пояс: GMT



Вы не можете начинать темы
Вы не можете отвечать на сообщения
Вы не можете редактировать свои сообщения
Вы не можете удалять свои сообщения
Вы не можете голосовать в опросах
Вы не можете прикреплять файлы к сообщениям
Вы не можете скачивать файлы