В следующий раз я буду стрелять в сердце / La prochaine fois je viserai le coeur (2015) WEBRip 1080p | Трейлер

 
Автор Сообщение

BOSS ®

Пол:

Стаж: 2 года 1 месяц

Сообщений: 3738

Откуда: ODESSA



Награды: 20 (Подробнее)

Top Keeper 2 (Количество: 1) Mega Releaser 2 (Количество: 1) Top Keeper 3 (Количество: 1)
Торрент-статистика

Создавать темы 13-Июн-2015 14:19

[Цитировать]

Год выпуска: 2014
Производство: Франция
Жанр: триллер
Перевод: Дублированный
Режиссер: Седрик Анже
Продюсеры: Ален Аттал, Anne Rapczyk, Томас Клотц
Актеры: Гийом Кане, Ана Жирардо, Жан-Ив Бертело, Патрик Азам, Арно Анриет, Дуглас Аттал, Pierick Tournier, Александр Карьер, François-Dominique Blin, Фрэнк Андриё
Описание фильма:
На протяжении нескольких месяцев, между 1978 и 1979 годами, жители Уазы постоянно испытывают тревогу и страх: на улицах свирепствует жестокий маньяк, мишенью которого являются молодые женщины. Вторгаясь в человеческие судьбы за рулем своего авто, преступник ранит и убивает выбранных наугад людей, голосующих на дороге. Словно находясь везде и нигде одновременно, он с легкостью ускользает от ловушек правосудия, избегая любые возможные преграды. Что и неудивительно, ведь в действительности он — молодой и робкий жандарм, ведущий в глазах коллектива скучную и монотонную жизнь. И как образцовый жандарм, он с удовольствием расследует свои собственные преступления…
Дата мировой премьеры: 23 августа 2014
Дата российской премьеры: 16 июля 2015

Продолжительность: 00:02:34
Качество видео: WEBRip
Видеокодек: MPEG-4 AVC/H.264
Битрейт видео: 2394 Кбит/сек
Размер кадра: 1920x1080
Аудиокодек: AAC
Битрейт аудио: 126 Кбит/сек

MediaInfo:

Общее
Полное имя : В следующий раз я буду стрелять в сердце Русский Трейлер (2015).mp4
Формат : MPEG-4
Профиль формата : Base Media
Идентификатор кодека : isom
Размер файла : 46,4 Мбайт
Продолжительность : 2 м. 34 с.
Общий поток : 2524 Кбит/сек
Программа кодирования : Lavf56.19.100
Видео
Идентификатор : 1
Формат : AVC
Формат/Информация : Advanced Video Codec
Профиль формата : High@L4
Параметр CABAC формата : Да
Параметр ReFrames формата : 2 кадра
Идентификатор кодека : avc1
Идентификатор кодека/Информация : Advanced Video Coding
Продолжительность : 2 м. 34 с.
Битрейт : 2394 Кбит/сек
Ширина : 1920 пикселей
Высота : 1080 пикселей
Соотношение сторон : 16:9
Режим частоты кадров : Постоянный
Частота кадров : 24,000 кадра/сек
Цветовое пространство : YUV
Субдискретизация насыщенности : 4:2:0
Битовая глубина : 8 бит
Тип развёртки : Прогрессивная
Бит/(Пиксели*Кадры) : 0.048
Размер потока : 44,0 Мбайт (95%)
Аудио
Идентификатор : 2
Формат : AAC
Формат/Информация : Advanced Audio Codec
Профиль формата : LC
Идентификатор кодека : 40
Продолжительность : 2 м. 34 с.
Вид битрейта : Постоянный
Битрейт : 126 Кбит/сек
Каналы : 2 канала
Расположение каналов : Front: L R
Частота : 44,1 КГц
Метод сжатия : С потерями
Размер потока : 2,31 Мбайт (5%)
Скриншоты - -

Скриншоты

[Профиль] [ЛС]
Кто просматривает тему:

Показать сообщения:    

Текущее время: Сегодня 18:25

Часовой пояс: GMT



Вы не можете начинать темы
Вы не можете отвечать на сообщения
Вы не можете редактировать свои сообщения
Вы не можете удалять свои сообщения
Вы не можете голосовать в опросах
Вы не можете прикреплять файлы к сообщениям
Вы не можете скачивать файлы