В следующий раз я буду стрелять в сердце / La prochaine fois je viserai le coeur (2014) BDRip 1080p | Лицензия

 
Автор Сообщение

достали все ®

Пол:

Стаж: 1 год 8 месяцев

Сообщений: 6515



Награды: 12 (Подробнее)

За внесенный вклад в развитие сайта (Количество: 1) Top Releaser 3 (Количество: 1) Mega Seeder 1 (Количество: 1)
Торрент-статистика

Создавать темы 06-Окт-2015 03:11

[Цитировать]

Информация о фильме
Название: В следующий раз я буду стрелять в сердце
Оригинальное название: La prochaine fois je viserai le coeur
Год выхода: 2014
Жанр: триллер, драма, криминал
Режиссер: Седрик Анже
В ролях: Гийом Кане, Ана Жирардо, Жан-Ив Бертело, Патрик Азам, Арно Анриет, Дуглас Аттал, Pierick Tournier, Александр Карьер, Francois-Dominique Blin, Фрэнк Андриё
О фильме: На протяжении нескольких месяцев, между 1978 и 1979 годами, жители Уазы постоянно испытывают тревогу и страх: на улицах свирепствует жестокий маньяк, мишенью которого являются молодые женщины. Вторгаясь в человеческие судьбы за рулем своего авто, преступник ранит и убивает выбранных наугад людей, голосующих на дороге. Словно находясь везде и нигде одновременно, он с легкостью ускользает от ловушек правосудия, избегая любые возможные преграды. Что и неудивительно, ведь в действительности он — молодой и робкий жандарм, ведущий в глазах коллектива скучную и монотонную жизнь. И как образцовый жандарм, он с удовольствием расследует свои собственные преступления…

Выпущено: Франция / Angoa-Agicoa, Canal+ [fr], Caneo Films, Centre National de la Cinematographie (CNC), Cine, Kinology, Les Productions du Tresor, Mars Films, Pictanovo Nord-Pas-de-Calais, Region Nord-Pas-de-Calais, Sofica Manon 4, Soficinema 6 Developpement, Sunrise Films
Продолжительность: 01:51:18
Озвучивание: Профессиональное (многоголосное) [Лицензия]
Файл
Формат: MKV
Качество: BDRip 1080p
Видео: x264, 8710 kb/s, 1920x800
Аудио: Russian: AC3, 384 kb/s (6 ch) / French: DTS, 1510 kb/s (6 ch)

Скриншоты

MediaInfo

File: D:ВидеоВ следующий раз я буду стрелять в сердце.2014.P.BDRip.1080p.mkv
General
Unique ID : 240542879483331080315229962109606974377 (0xB4F6DF9A7582EA898C3DC9DD2BF853A9)
Complete name : D:ВидеоВ следующий раз я буду стрелять в сердце.2014.P.BDRip.1080p.mkv
Format : Matroska
Format version : Version 4 / Version 2
File size : 8.24 GiB
Duration : 1h 51mn
Overall bit rate : 10.6 Mbps
Movie name : La.Prochaime.Fois.Je.Viseral.Le.2014.P.BDRip.1080p.ELEKTRI4KA.uniongang.tv
Encoded date : UTC 2015-10-04 14:07:33
Writing application : mkvmerge v8.3.0 ('Over the Horizon') 64bit
Writing library : libebml v1.3.1 + libmatroska v1.4.2
DURATION : 01:51:17.120000000
NUMBER_OF_FRAMES : 625980
NUMBER_OF_BYTES : 1259471760
_STATISTICS_WRITING_APP : mkvmerge v8.3.0 ('Over the Horizon') 64bit
_STATISTICS_WRITING_DATE_UTC : 2015-10-04 14:07:33
_STATISTICS_TAGS : BPS DURATION NUMBER_OF_FRAMES NUMBER_OF_BYTES
Video
ID : 1
Format : AVC
Format/Info : Advanced Video Codec
Format profile : High@L4.1
Format settings, CABAC : Yes
Format settings, ReFrames : 5 frames
Codec ID : V_MPEG4/ISO/AVC
Duration : 1h 51mn
Bit rate : 8 710 Kbps
Width : 1 920 pixels
Height : 800 pixels
Display aspect ratio : 2.40:1
Frame rate mode : Constant
Frame rate : 24.000 fps
Color space : YUV
Chroma subsampling : 4:2:0
Bit depth : 8 bits
Scan type : Progressive
Bits/(Pixel*Frame) : 0.236
Stream size : 6.61 GiB (80%)
Title : La.Prochaime.Fois.Je.Viseral.Le.2014.P.BDRip.1080p.ELEKTRI4KA.uniongang.tv
Writing library : x264 core 146 r2538 121396c
Encoding settings : cabac=1 / ref=5 / deblock=1:0:0 / analyse=0x3:0x113 / me=umh / subme=8 / psy=1 / psy_rd=1.00:0.00 / mixed_ref=1 / me_range=16 / chroma_me=1 / trellis=1 / 8x8dct=1 / cqm=0 / deadzone=21,11 / fast_pskip=1 / chroma_qp_offset=-2 / threads=18 / lookahead_threads=3 / sliced_threads=0 / nr=0 / decimate=1 / interlaced=0 / bluray_compat=0 / constrained_intra=0 / bframes=3 / b_pyramid=2 / b_adapt=2 / b_bias=0 / direct=3 / weightb=1 / open_gop=0 / weightp=2 / keyint=240 / keyint_min=24 / scenecut=40 / intra_refresh=0 / rc_lookahead=50 / rc=2pass / mbtree=1 / bitrate=8710 / ratetol=1.0 / qcomp=0.60 / qpmin=0 / qpmax=69 / qpstep=4 / cplxblur=20.0 / qblur=0.5 / ip_ratio=1.40 / aq=1:1.00
Language : English
Default : Yes
Forced : No
DURATION : 01:51:18.125000000
NUMBER_OF_FRAMES : 160275
NUMBER_OF_BYTES : 7270188245
_STATISTICS_WRITING_APP : mkvmerge v8.3.0 ('Over the Horizon') 64bit
_STATISTICS_WRITING_DATE_UTC : 2015-10-04 14:07:33
_STATISTICS_TAGS : BPS DURATION NUMBER_OF_FRAMES NUMBER_OF_BYTES
Audio #1
ID : 2
Format : AC-3
Format/Info : Audio Coding 3
Mode extension : CM (complete main)
Format settings, Endianness : Big
Codec ID : A_AC3
Duration : 1h 51mn
Bit rate mode : Constant
Bit rate : 384 Kbps
Channel(s) : 6 channels
Channel positions : Front: L C R, Side: L R, LFE
Sampling rate : 48.0 KHz
Bit depth : 16 bits
Compression mode : Lossy
Stream size : 306 MiB (4%)
Title : La.Prochaime.Fois.Je.Viseral.Le.2014.P.BDRip.1080p.ELEKTRI4KA.uniongang.tv
Language : Russian
Default : Yes
Forced : No
Audio #2
ID : 3
Format : DTS
Format/Info : Digital Theater Systems
Mode : 16
Format settings, Endianness : Big
Codec ID : A_DTS
Duration : 1h 51mn
Bit rate mode : Constant
Bit rate : 1 509 Kbps
Channel(s) : 6 channels
Channel positions : Front: L C R, Side: L R, LFE
Sampling rate : 48.0 KHz
Bit depth : 24 bits
Compression mode : Lossy
Stream size : 1.17 GiB (14%)
Title : La.Prochaime.Fois.Je.Viseral.Le.2014.P.BDRip.1080p.ELEKTRI4KA.uniongang.tv
Language : French
Default : No
Forced : No
Menu
00:00:00.000 : en:00:00:00.000
00:08:43.500 : en:00:08:43.500
00:18:08.292 : en:00:18:08.292
00:27:01.208 : en:00:27:01.208
00:36:55.250 : en:00:36:55.250
00:48:15.750 : en:00:48:15.750
00:57:28.792 : en:00:57:28.792
01:06:22.333 : en:01:06:22.333
01:18:01.917 : en:01:18:01.917
01:27:01.250 : en:01:27:01.250
01:36:06.625 : en:01:36:06.625
01:46:15.583 : en:01:46:15.583
[Профиль] [ЛС]
Кто просматривает тему:

Показать сообщения:    

Текущее время: Сегодня 05:01

Часовой пояс: GMT



Вы не можете начинать темы
Вы не можете отвечать на сообщения
Вы не можете редактировать свои сообщения
Вы не можете удалять свои сообщения
Вы не можете голосовать в опросах
Вы не можете прикреплять файлы к сообщениям
Вы не можете скачивать файлы