В сердце моря / In the Heart of the Sea (2015) BDRip 1080p | D, A | Лицензия

 
Автор Сообщение

достали все ®

Пол:

Стаж: 1 год 8 месяцев

Сообщений: 6581



Награды: 12 (Подробнее)

Top Releaser 2 (Количество: 1) Mega Seeder 2 (Количество: 1) Mega Releaser 1 (Количество: 1)
Торрент-статистика

Создавать темы 31-Мар-2016 03:20

[Цитировать]

Информация о фильме
Название: В сердце моря
Оригинальное название: In the Heart of the Sea
Год выхода: 2015
Жанр: боевик, триллер, драма, приключения, биография, история
Режиссер: Рон Ховард
В ролях: Крис Хемсворт, Бенджамин Уокер, Киллиан Мёрфи, Брендан Глисон, Бен Уишоу, Мишель Фэйрли, Том Холланд, Пол Андерсон, Фрэнк Диллэйн, Джозеф Моул
О фильме:
В 1819 году американский корабль «Эссекс» с командой из двух десятков человек на борту отправился из порта в штате Массачусетс на китобойный промысел. Осенью 1820-го успешная на протяжении полутора лет охота была прервана атакой гигантского кашалота на судно, в результате чего морякам пришлось пересесть в шлюпки. В течение трех с лишним месяцев они боролись за выживание посреди океана...

Страна: США, Австралия, Испания, Великобритания, Канада
Студия: Cott Productions, Enelmar Productions, Imagine Entertainment, Village Roadshow Pictures, Warner Bros. Pictures
Продолжительность: 02:01:43
Перевод: Профессиональный (дублированный) Blu-ray EUR + Авторский (одноголосый, закадровый) Ю.Живов + Авторский (одноголосый, закадровый) Д.Есарев
Файл
Формат: Matroska
Видео: 1920x1080 at 23.976 fps, [email protected]/* */, ~16300 kbps avg
Аудио#1: Russian: 48 kHz, AC3, 3/2 (L,C,R,l,r) + LFE ch, ~448.00 kbps avg |Дубляж, Blu-ray EUR|
Аудио#2: Russian: 48 kHz, AC3, 3/2 (L,C,R,l,r) + LFE ch, ~640.00 kbps avg |Авторский, Ю.Живов|
Аудио#3: Russian: 48 kHz, AC3, 3/2 (L,C,R,l,r) + LFE ch, ~640.00 kbps avg |Авторский, Д.Есарев|
Аудио#4: English: 48 kHz, AC3-EX, 3/2 (L,C,R,l,r) + LFE ch, ~640.00 kbps avg
Субтитры: Russian, Ukrainian, English
***Сохранены оригинальные главы как на Blu-ray.
***Видеоряд - SA89!
***Debanded some scenes.
***Перевод Ю.Живова доступен благодаря: ylnian.
***Перевод Д.Есарева доступен благодаря: mv73, Roy 33, Shrooms, sivservik, shandorra, potroks, Indian1990, Прохожий, Loki1982, portnoi, shurikkein, ZeDOK, ana2363, Volshebnik, Tablozar, igrok2012.

MI

General
Unique ID : 198700404204140201216390136025263892006 (0x957C4E4BA6F2E31993555078D3EFE626)
Complete name : In.the.Heart.of.the.Sea.2015.1080p.BluRay.mkv
Format : Matroska
Format version : Version 4 / Version 2
File size : 15.8 GiB
Duration : 2h 1mn
Overall bit rate : 18.6 Mbps
Movie name : In the Heart of the Sea (2015)
Encoded date : UTC 2016-03-31 00:16:01
Writing application : mkvmerge v8.3.0 ('Over the Horizon') 64bit
Writing library : libebml v1.3.1 + libmatroska v1.4.2
Video
ID : 1
Format : AVC
Format/Info : Advanced Video Codec
Format profile : High@L4.1
Format settings, CABAC : Yes
Format settings, ReFrames : 4 frames
Codec ID : V_MPEG4/ISO/AVC
Duration : 2h 1mn
Bit rate : 16.3 Mbps
Width : 1 920 pixels
Height : 1 080 pixels
Display aspect ratio : 16:9
Frame rate mode : Constant
Frame rate : 23.976 (24000/1001) fps
Color space : YUV
Chroma subsampling : 4:2:0
Bit depth : 8 bits
Scan type : Progressive
Bits/(Pixel*Frame) : 0.327
Stream size : 13.8 GiB (87%)
Title : In the Heart of the Sea (2015)
Writing library : x264 core 148 r2665 a01e339
Encoding settings : cabac=1 / ref=4 / deblock=1:-3:-3 / analyse=0x3:0x133 / me=umh / subme=10 / psy=1 / psy_rd=1.00:0.00 / mixed_ref=1 / me_range=24 / chroma_me=1 / trellis=2 / 8x8dct=1 / cqm=0 / deadzone=21,11 / fast_pskip=1 / chroma_qp_offset=-2 / threads=6 / lookahead_threads=1 / sliced_threads=0 / nr=0 / decimate=1 / interlaced=0 / bluray_compat=0 / constrained_intra=0 / bframes=8 / b_pyramid=2 / b_adapt=2 / b_bias=0 / direct=3 / weightb=1 / open_gop=0 / weightp=2 / keyint=250 / keyint_min=25 / scenecut=40 / intra_refresh=0 / rc_lookahead=60 / rc=crf / mbtree=0 / crf=17.0 / qcomp=0.60 / qpmin=0 / qpmax=69 / qpstep=4 / vbv_maxrate=62500 / vbv_bufsize=78125 / crf_max=0.0 / nal_hrd=none / filler=0 / ip_ratio=1.40 / pb_ratio=1.30 / aq=1:0.80 / zones=497,1440,crf=15/1670,3100,crf=15/3681,3805,crf=15/8951,9040,crf=15/9110,9209,crf=15/14789,15109,crf=15/16075,16597,crf=15/30560,30799,crf=15/36109,37808,crf=15/51120,51256,crf=15/52962,53097,crf=16/53659,53706,crf=15/57866,57911,crf=15/58152,58197,crf=15/61216,61305,crf=15/62040,62087,crf=15/62345,62376,crf=15/64710,64764,crf=15/88462,88537,crf=15/92196,92303,crf=15/94202,94265,crf=15/96994,97285,crf=15/102729,102812,crf=15/112065,112320,crf=15/114326,114379,crf=15/124295,124363,crf=15/130040,130205,crf=15/130926,131191,crf=15/134548,134755,crf=15/140341,140399,crf=15/141137,141277,crf=15/148630,148698,crf=15/155400,155496,crf=15/156199,156364,crf=15/157537,157640,crf=15/160742,160834,crf=15/160882,160996,crf=15/161136,161185,crf=15/161323,161497,crf=15/162460,162530,crf=15
Language : English
Default : Yes
Forced : No
Audio #1
ID : 2
Format : AC-3
Format/Info : Audio Coding 3
Mode extension : CM (complete main)
Format settings, Endianness : Big
Codec ID : A_AC3
Duration : 2h 1mn
Bit rate mode : Constant
Bit rate : 448 Kbps
Channel(s) : 6 channels
Channel positions : Front: L C R, Side: L R, LFE
Sampling rate : 48.0 KHz
Frame rate : 31.250 fps (1536 spf)
Compression mode : Lossy
Stream size : 390 MiB (2%)
Title : AC3 5.1 @ 448 kbps - DUB, Blu-ray CEE
Language : Russian
Default : Yes
Forced : No
Audio #2
ID : 3
Format : AC-3
Format/Info : Audio Coding 3
Mode extension : CM (complete main)
Format settings, Endianness : Big
Codec ID : A_AC3
Duration : 2h 1mn
Bit rate mode : Constant
Bit rate : 640 Kbps
Channel(s) : 6 channels
Channel positions : Front: L C R, Side: L R, LFE
Sampling rate : 48.0 KHz
Frame rate : 31.250 fps (1536 spf)
Compression mode : Lossy
Stream size : 557 MiB (3%)
Title : AC3 5.1-EX @ 640 kbps
Language : English
Default : No
Forced : No
Audio #3
ID : 4
Format : AC-3
Format/Info : Audio Coding 3
Mode extension : CM (complete main)
Format settings, Endianness : Big
Codec ID : A_AC3
Duration : 2h 1mn
Bit rate mode : Constant
Bit rate : 640 Kbps
Channel(s) : 6 channels
Channel positions : Front: L C R, Side: L R, LFE
Sampling rate : 48.0 KHz
Frame rate : 31.250 fps (1536 spf)
Compression mode : Lossy
Stream size : 557 MiB (3%)
Title : AVO (Живов) (AC3 5.1 640 kbps)
Language : Russian
Default : No
Forced : No
Audio #4
ID : 5
Format : AC-3
Format/Info : Audio Coding 3
Mode extension : CM (complete main)
Format settings, Endianness : Big
Codec ID : A_AC3
Duration : 2h 1mn
Bit rate mode : Constant
Bit rate : 640 Kbps
Channel(s) : 6 channels
Channel positions : Front: L C R, Side: L R, LFE
Sampling rate : 48.0 KHz
Frame rate : 31.250 fps (1536 spf)
Compression mode : Lossy
Stream size : 557 MiB (3%)
Title : AVO (Есарев) (AC3 5.1 640 kbps)
Language : Russian
Default : No
Forced : No
Text #1
ID : 6
Format : UTF-8
Codec ID : S_TEXT/UTF8
Codec ID/Info : UTF-8 Plain Text
Duration : 1h 50mn
Bit rate : 2 bps
Count of elements : 29
Stream size : 1.79 KiB (0%)
Title : forced
Language : Russian
Default : Yes
Forced : No
Text #2
ID : 7
Format : UTF-8
Codec ID : S_TEXT/UTF8
Codec ID/Info : UTF-8 Plain Text
Duration : 1h 51mn
Bit rate : 84 bps
Count of elements : 1109
Stream size : 68.8 KiB (0%)
Title : v.1
Language : Russian
Default : No
Forced : No
Text #3
ID : 8
Format : UTF-8
Codec ID : S_TEXT/UTF8
Codec ID/Info : UTF-8 Plain Text
Duration : 1h 51mn
Bit rate : 82 bps
Count of elements : 1064
Stream size : 67.6 KiB (0%)
Title : v.1
Language : Russian
Default : No
Forced : No
Text #4
ID : 9
Format : UTF-8
Codec ID : S_TEXT/UTF8
Codec ID/Info : UTF-8 Plain Text
Duration : 1h 50mn
Bit rate : 2 bps
Count of elements : 31
Stream size : 1.88 KiB (0%)
Title : forced
Language : Ukrainian
Default : No
Forced : No
Text #5
ID : 10
Format : UTF-8
Codec ID : S_TEXT/UTF8
Codec ID/Info : UTF-8 Plain Text
Duration : 2h 0mn
Bit rate : 49 bps
Count of elements : 1444
Stream size : 43.9 KiB (0%)
Title : SDH
Language : English
Default : No
Forced : No
Text #6
ID : 11
Format : UTF-8
Codec ID : S_TEXT/UTF8
Codec ID/Info : UTF-8 Plain Text
Duration : 1h 51mn
Bit rate : 40 bps
Count of elements : 890
Stream size : 33.5 KiB (0%)
Title : Croatian
Language : Croatian
Default : No
Forced : No
Text #7
ID : 12
Format : UTF-8
Codec ID : S_TEXT/UTF8
Codec ID/Info : UTF-8 Plain Text
Duration : 1h 51mn
Bit rate : 42 bps
Count of elements : 995
Stream size : 34.4 KiB (0%)
Title : Danish
Language : Danish
Default : No
Forced : No
Text #8
ID : 13
Format : UTF-8
Codec ID : S_TEXT/UTF8
Codec ID/Info : UTF-8 Plain Text
Duration : 1h 51mn
Bit rate : 41 bps
Count of elements : 958
Stream size : 34.1 KiB (0%)
Title : Dutch
Language : Dutch
Default : No
Forced : No
Text #9
ID : 14
Format : UTF-8
Codec ID : S_TEXT/UTF8
Codec ID/Info : UTF-8 Plain Text
Duration : 1h 51mn
Bit rate : 78 bps
Count of elements : 946
Stream size : 64.2 KiB (0%)
Title : Greek
Language : Greek
Default : No
Forced : No
Text #10
ID : 15
Format : UTF-8
Codec ID : S_TEXT/UTF8
Codec ID/Info : UTF-8 Plain Text
Duration : 1h 51mn
Bit rate : 52 bps
Count of elements : 1135
Stream size : 42.7 KiB (0%)
Title : Portuguese
Language : Portuguese
Default : No
Forced : No
Text #11
ID : 16
Format : UTF-8
Codec ID : S_TEXT/UTF8
Codec ID/Info : UTF-8 Plain Text
Duration : 1h 51mn
Bit rate : 51 bps
Count of elements : 1088
Stream size : 42.1 KiB (0%)
Title : Romanian
Language : Romanian
Default : No
Forced : No
Text #12
ID : 17
Format : UTF-8
Codec ID : S_TEXT/UTF8
Codec ID/Info : UTF-8 Plain Text
Duration : 1h 51mn
Bit rate : 42 bps
Count of elements : 1039
Stream size : 34.8 KiB (0%)
Title : Spanish
Language : Spanish
Default : No
Forced : No
Text #13
ID : 18
Format : UTF-8
Codec ID : S_TEXT/UTF8
Codec ID/Info : UTF-8 Plain Text
Duration : 1h 51mn
Bit rate : 38 bps
Count of elements : 984
Stream size : 31.4 KiB (0%)
Title : Swedish
Language : Swedish
Default : No
Forced : No
Menu
00:00:00.000 : en:00:00:00.000
00:12:07.518 : en:00:12:07.518
00:21:19.737 : en:00:21:19.737
00:33:31.968 : en:00:33:31.968
00:42:37.013 : en:00:42:37.013
00:51:32.715 : en:00:51:32.715
01:06:45.835 : en:01:06:45.835
01:13:14.015 : en:01:13:14.015
01:23:23.290 : en:01:23:23.290
01:33:47.872 : en:01:33:47.872
01:43:22.029 : en:01:43:22.029
01:53:00.774 : en:01:53:00.774

Скриншоты


[Профиль] [ЛС]
Кто просматривает тему:

Показать сообщения:    

Текущее время: Сегодня 16:25

Часовой пояс: GMT



Вы не можете начинать темы
Вы не можете отвечать на сообщения
Вы не можете редактировать свои сообщения
Вы не можете удалять свои сообщения
Вы не можете голосовать в опросах
Вы не можете прикреплять файлы к сообщениям
Вы не можете скачивать файлы