В пустыне / Desierto Adentro / The Desert Within (Родриго Пла / Rodrigo Pla) [2008, Мексика, Драма, DVDRip] VO + Sub Rus + Original Spa

 
Автор Сообщение

TorrentFilm ®

Пол:

Стаж: 2 года

Сообщений: 7741



Награды: Нет

Торрент-статистика

Создавать темы 27-Фев-2015 00:01

[Цитировать]

В пустыне / Desierto Adentro / The Desert Within
Страна: Мексика
Жанр: Драма
Год выпуска: 2008
Продолжительность: 01:52:41
Перевод: Одноголосый закадровый
Cубтитры: русские
Оригинальная аудиодорожка: испанский
Режиссер: Родриго Пла / Rodrigo Pla
В ролях: Диего Катаньо, Гильермо Дорантес, Катя Ксанат Эспино, Луис Фернандо Пенья, Эйлен Яньес, Мартин Сапата, Марио Сарагоса и др.
Описание: Чтобы искупить тяжкий грех, сбежавший от гражданской войны отец многочисленного семейства решает построить в пустыне церковь. Но путь искупления оказывается для него и для его детей непосильной ношей...
История рассказывается от лица малолетнего Аурелиано, который родился как раз в тот день, когда для его семьи началась долгая дорога к Богу и прощению.
Доп. информация: Фильм взят отсюда http://torrentfilm.net/forum/viewtopic.php?t=3120274
Сэмпл: http://multi-up.com/1034024
Качество видео: DVDRip
Формат видео: AVI
Видео: 608x336 (1.81:1), 23.976 fps, XviD build 50 ~719 kbps avg, 0.15 bit/pixel
Аудио 1: 48 kHz, MPEG Layer 3, 2 ch, ~128.00 kbps avg(Русский)
Аудио 2: 48 kHz, MPEG Layer 3, 2 ch, ~128.00 kbps avg(Испанский)
Формат субтитров: softsub (SRT)
Доп. информация о субтитрах: Русские внешние (prostotak)

MediaInfo

Общее
Полное имя : F:\С моей озвучкой\В пустыне\Desierto Adentro.avi
Формат : AVI
Формат/Информация : Audio Video Interleave
Размер файла : 798 Мбайт
Продолжительность : 1 ч. 52 м.
Общий поток : 990 Кбит/сек
Программа кодирования : VirtualDubModRus 1.5.10.2 (build 2542/release)
Библиотека кодирования : VirtualDubMod build 2542/release
Видео
Идентификатор : 0
Формат : MPEG-4 Visual
Профиль формата : Advanced Simple@L5
Параметр BVOP формата : 2
Параметр QPel формата : Нет
Параметр GMC формата : Без точки перехода
Параметр матрицы формата : Default (H.263)
Идентификатор кодека : XVID
Идентификатор кодека/Подсказка : XviD
Продолжительность : 1 ч. 52 м.
Битрейт : 720 Кбит/сек
Ширина : 608 пикселей
Высота : 336 пикселей
Соотношение сторон : 16:9
Частота кадров : 23,976 кадра/сек
Цветовое пространство : YUV
Субдискретизация насыщенности : 4:2:0
Битовая глубина : 8 бит
Тип развёртки : Прогрессивная
Метод сжатия : С потерями
Бит/(Пиксели*Кадры) : 0.147
Размер потока : 581 Мбайт (73%)
Библиотека кодирования : XviD 1.2.1 (UTC 2008-12-04)
Аудио #1
Идентификатор : 1
Формат : MPEG Audio
Версия формата : Version 1
Профиль формата : Layer 3
Режим : Joint stereo
Расширение режима : MS Stereo
Идентификатор кодека : 55
Идентификатор кодека/Подсказка : MP3
Продолжительность : 1 ч. 52 м.
Вид битрейта : Постоянный
Битрейт : 128 Кбит/сек
Каналы : 2 канала
Частота : 48,0 КГц
Метод сжатия : С потерями
Размер потока : 103 Мбайт (13%)
Выравнивание : Соединение по промежуткам
Продолжительность промежутка : 42 мс. (1,00 видеокадр)
Время предзагрузки промежутка : 504 мс.
Библиотека кодирования : LAME3.96
Аудио #2
Идентификатор : 2
Формат : MPEG Audio
Версия формата : Version 1
Профиль формата : Layer 3
Режим : Joint stereo
Расширение режима : MS Stereo
Идентификатор кодека : 55
Идентификатор кодека/Подсказка : MP3
Продолжительность : 1 ч. 52 м.
Вид битрейта : Постоянный
Битрейт : 128 Кбит/сек
Каналы : 2 канала
Частота : 48,0 КГц
Метод сжатия : С потерями
Размер потока : 103 Мбайт (13%)
Выравнивание : Соединение по промежуткам
Продолжительность промежутка : 42 мс. (1,00 видеокадр)
Время предзагрузки промежутка : 504 мс.

Скриншоты

[Профиль] [ЛС]

Создавать темы 06-Авг-2015 22:42 (спустя 5 месяцев 7 дней)

Топик был перенесен из форума Фильмы до 2014 года в форум Фильмы до 2012 года
sergej644
 

Создавать темы 12-Июн-2016 08:51 (спустя 1 год 3 месяца)

Топик был перенесен из форума Фильмы 2011 года в форум Фильмы 2006-2008 года
Russian Mafia
 
Кто просматривает тему:

Показать сообщения:    

Текущее время: Сегодня 01:08

Часовой пояс: GMT



Вы не можете начинать темы
Вы не можете отвечать на сообщения
Вы не можете редактировать свои сообщения
Вы не можете удалять свои сообщения
Вы не можете голосовать в опросах
Вы не можете прикреплять файлы к сообщениям
Вы не можете скачивать файлы