В порядке вещей / Я так хочу / My normal (Ирвинг Шварц / Irving Schwartz) [2009, США, Мелодрама, лесби - тема, DVDRip] Sub Rus + Original Eng

 
Автор Сообщение

painkiller ®

Стаж: 2 года 3 месяца

Сообщений: 582



Награды: Нет

Торрент-статистика

Создавать темы 15-Авг-2014 10:17

[Цитировать]

Я так хочу / My normal
Страна: США
Жанр: Мелодрама
Год выпуска: 2009
Продолжительность: 01:15:07
Перевод: Субтитры (М. Васильев aka lakdhf)
Cубтитры: русские
Оригинальная аудиодорожка: английский
Режиссер: Ирвинг Шварц / Irving Schwartz
В ролях: Николь Лалиберт, Тай Джонс, Доун Ноэль Пиньела, Марк Сартурно, Мэйн Андерс
Описание: Натали трудится в БДСМ – салоне. Ее работа: доставлять состоятельным мужчинам удовольствие путем причинения страданий. Работу свою она любит и ловит от нее кайф даже больше, чем ее клиенты – мазохисты. В свободное время Натали устраивает личную жизнь, пишет автобиографический сценарий и мечтает о карьере в кино. И вот еще: она – лесбиянка...
Доп. информация: Болтливое, неспешное кино. Представьте один эпизод «Тайного дневника девушки по вызову» в более растянутом формате и с уклоном в лесби – тематику. Немного комедии, чуть драмы, одна стилизованная постельная сцена, мораль истории, которая тянет на девиз эпохи политкорректности: люби себя таким, какой ты есть, и в жизни ждет тебя успех.
Мировая премьера фильма состоялась в рамках фестиваля Tribeca
Далее последовали: спецпрограммы Берлиналия, Роттердама и все существующие в мире ЛГБТ фестивали.
Награды:
Фестиваль фильмов для геев и лесбиянок в Мельбурне (Австралия) - приз зрительских симпатий
Кинофестиваль в Торонто (Канада) - спецприз жюри (в рамках программы "Новое поколение") за "творческую смелость"
Фильм представляет интерес для тех, кто в курсе, что такое фемдом
Возрастные ограничения: 18 +
ФИЛЬМ СОДЕРЖИТ СЦЕНЫ, КОТОРЫЕ МОГУТ БЫТЬ ИСТОЛКОВАНЫ КАК ПРОПАГАНДА ОДНОПОЛЫХ ОТНОШЕНИЙ И САДОМАЗОХИЗМА
Сэмпл: http://yadi.sk/d/q2dosWgkJapFB
Качество видео: DVDRip
Формат видео: AVI
Видео: 1173 Kbps, 720x352 (16:9) 23976 fps, MPEG 4, XviD
Аудио: 128 Kbps, 48.0 KHz, 2 ch, MPEG Audio MP 3
Формат субтитров: softsub (SRT)

MediaInfo

General
Complete name : C:\Users\Владелец\Downloads\MyNormal\MyNormal.avi
Format : AVI
Format/Info : Audio Video Interleave
File size : 702 MiB
Duration : 1h 15mn
Overall bit rate : 1 306 Kbps
Video
ID : 0
Format : MPEG-4 Visual
Format profile : Advanced Simple@L5
Format settings, BVOP : 2
Format settings, QPel : No
Format settings, GMC : No warppoints
Format settings, Matrix : Default (H.263)
Muxing mode : Packed bitstream
Codec ID : XVID
Codec ID/Hint : XviD
Duration : 1h 15mn
Bit rate : 1 173 Kbps
Width : 720 pixels
Height : 352 pixels
Display aspect ratio : 16:9
Frame rate : 23.976 fps
Color space : YUV
Chroma subsampling : 4:2:0
Bit depth : 8 bits
Scan type : Progressive
Compression mode : Lossy
Bits/(Pixel*Frame) : 0.193
Stream size : 630 MiB (90%)
Writing library : XviD 1.2.1 (UTC 2008-12-04)
Audio
ID : 1
Format : MPEG Audio
Format version : Version 1
Format profile : Layer 3
Mode : Joint stereo
Mode extension : MS Stereo
Codec ID : 55
Codec ID/Hint : MP3
Duration : 1h 15mn
Bit rate mode : Constant
Bit rate : 128 Kbps
Channel(s) : 2 channels
Sampling rate : 48.0 KHz
Compression mode : Lossy
Stream size : 68.8 MiB (10%)
Alignment : Aligned on interleaves
Interleave, duration : 679 ms (16.29 video frames)
Interleave, preload duration : 216 ms
Writing library : LAME3.98r
Encoding settings : -m j -V 4 -q 2 -lowpass 17 -b 128
Language : English

Скриншот c названием фильма

Скриншоты







Субтитры

1
00:00:27,307 --> 00:00:29,468
У вас проблемы, девочки
2
00:00:32,879 --> 00:00:35,370
Ваше поведение совершенно неприемлемо
3
00:00:36,483 --> 00:00:38,678
Мистер Коннор...
4
00:00:38,719 --> 00:00:40,550
И что мы сделали?
5
00:00:40,587 --> 00:00:42,782
Вы трое мешаете занятиям
6
00:00:42,823 --> 00:00:44,654
Мешаете другим ученикам,
7
00:00:44,691 --> 00:00:46,989
которые реально пришли сюда учиться
8
00:00:47,928 --> 00:00:50,419
Я вынужден сообщить вашим родителям
9
00:00:50,464 --> 00:00:52,523
А еще вы все остаетесь после уроков
10
00:00:53,934 --> 00:00:56,960
Я не только позвоню родителям
11
00:00:57,003 --> 00:00:59,062
Но вы остаетесь после уроков
12
00:00:59,106 --> 00:01:03,406
После уроков
13
00:01:05,145 --> 00:01:06,669
Думаете, это смешно?
14
00:01:09,216 --> 00:01:10,615
Нет, Джим
15
00:01:10,650 --> 00:01:13,585
Ничего смешного в этом нет
16
00:01:14,821 --> 00:01:15,981
Я не закончил
17
00:01:17,858 --> 00:01:18,790
Надевай
18
00:01:18,825 --> 00:01:21,123
Это недопустимое поведение
19
00:01:21,161 --> 00:01:24,255
Ты, идиот, что не понял?
20
00:01:24,297 --> 00:01:25,559
Я сказала: надевай!
[Профиль] [ЛС]

Создавать темы 06-Авг-2015 23:10 (спустя 11 месяцев 22 дня)

Топик был перенесен из форума Фильмы до 2014 года в форум Фильмы до 2012 года
sergej644
 

Создавать темы 12-Июн-2016 08:48 (спустя 1 год 9 месяцев)

Топик был перенесен из форума Фильмы 2011 года в форум Фильмы 2009 года
Russian Mafia
 
Кто просматривает тему:

Показать сообщения:    

Текущее время: Сегодня 13:47

Часовой пояс: GMT



Вы не можете начинать темы
Вы не можете отвечать на сообщения
Вы не можете редактировать свои сообщения
Вы не можете удалять свои сообщения
Вы не можете голосовать в опросах
Вы не можете прикреплять файлы к сообщениям
Вы не можете скачивать файлы