В поисках радости / Finding Joy (Карло Де Роза)[2013,Комедия, драма] HDTV 1080i | P2

 
Автор Сообщение

adeei ®

Пол:

Стаж: 1 год 8 месяцев

Сообщений: 63

Откуда: Россия Иваново



Награды: 3 (Подробнее)

Mega Seeder 3 (Количество: 1) Mega Seeder 2 (Количество: 1) Mega Seeder 1 (Количество: 1)
Торрент-статистика

Создавать темы 06-Май-2015 14:30

[Цитировать]

В поисках радости / Finding Joy Год выпуска: 2013
Жанр: Комедия, драма
Выпущено: США
Студия: Kreate Films
Продолжительность: 01:31:33
Перевод: Профессиональный двухголосый (НТВ+)-Режиссер: Карло Де Роза-В ролях: Джош Кук, Лиэн Балабан, Бэрри Боствик, Лэйни Казан, Тайлер Банч, Кики Харрис, Кармен Лопес, Фредрик Бэм Скотт-Описание: Эгоцентричный писатель Кайл, погрязший в рутине, заново открывает себя и свою семью, осознав, что означает быть счастливым, когда он встречает Джой - энергичную молодую женщину, которая просит его написать для нее некролог...- -Качество: HDTV 1080i
Видео: MPEG-4 AVC, 5387 Кбит/с, 1920x1080, 25.000 кадр/с
Аудио#1: Русский (АС3, 2 ch, 384 Кбит/с)
Аудио#2: Русский (MP2, 2 ch, 192 Кбит/с)-

Медио инфо

Общее
Идентификатор : 20 (0x14)
Полное имя : V.poiskax.radosti.2013.HDTV(1080i).MediaClub.ts
Формат : MPEG-TS
Размер файла : 4,02 Гбайт
Продолжительность : 1 ч. 31 м.
Режим общего битрейта : Переменный
Общий поток : 6280 Кбит/сек
Видео
Идентификатор : 302 (0x12E)
Идентификатор меню : 20102 (0x4E86)
Формат : AVC
Формат/Информация : Advanced Video Codec
Профиль формата : High@L4.0
Параметр CABAC формата : Да
Параметр ReFrames формата : 4 кадра
Идентификатор кодека : 27
Продолжительность : 1 ч. 31 м.
Битрейт : 5387 Кбит/сек
Ширина : 1920 пикселей
Высота : 1080 пикселей
Соотношение сторон : 16:9
Частота кадров : 25,000 кадров/сек
Стандарт вещания : Component
Цветовое пространство : YUV
Субдискретизация насыщенности : 4:2:0
Битовая глубина : 8 бит
Тип развёртки : Чересстрочная
Порядок развёртки : Верхнее поле первое
Бит/(Пиксели*Кадры) : 0.104
Размер потока : 3,44 Гбайт (86%)
Основные цвета : BT.709
Характеристики трансфера : BT.709
Коэффициенты матрицы : BT.709
Аудио #1
Идентификатор : 402 (0x192)
Идентификатор меню : 20102 (0x4E86)
Формат : MPEG Audio
Версия формата : Version 1
Профиль формата : Layer 2
Идентификатор кодека : 4
Продолжительность : 1 ч. 31 м.
Вид битрейта : Постоянный
Битрейт : 192 Кбит/сек
Каналы : 2 канала
Частота : 48,0 КГц
Метод сжатия : С потерями
Задержка видео : -874 мс.
Размер потока : 126 Мбайт (3%)
Язык : Russian
Язык, дополнительно : Clean effects
Аудио #2
Идентификатор : 422 (0x1A6)
Идентификатор меню : 20102 (0x4E86)
Формат : AC-3
Формат/Информация : Audio Coding 3
Расширение режима : CM (complete main)
Параметр Endianness формата : Big
Идентификатор кодека : 6
Продолжительность : 1 ч. 31 м.
Вид битрейта : Постоянный
Битрейт : 384 Кбит/сек
Каналы : 2 канала
Расположение каналов : Front: L R
Частота : 48,0 КГц
Битовая глубина : 16 бит
Метод сжатия : С потерями
Задержка видео : -970 мс.
Размер потока : 251 Мбайт (6%)
Язык : Russian
Меню
Идентификатор : 2002 (0x7D2)
Идентификатор меню : 20102 (0x4E86)
Продолжительность : 1 ч. 31 м.
Список : 302 (0x12E) (AVC) / 402 (0x192) (MPEG Audio, Russian) / 422 (0x1A6) (AC-3, Russian)
Язык : / Russian / Russian

Скриншоты

-
[Профиль] [ЛС]

Создавать темы 06-Авг-2015 22:32 (спустя 3 месяца)

Топик был перенесен из форума Фильмы до 2014 года в форум Фильмы 2013 года
sergej644
 
Кто просматривает тему:

Показать сообщения:    

Текущее время: Сегодня 00:38

Часовой пояс: GMT



Вы не можете начинать темы
Вы не можете отвечать на сообщения
Вы не можете редактировать свои сообщения
Вы не можете удалять свои сообщения
Вы не можете голосовать в опросах
Вы не можете прикреплять файлы к сообщениям
Вы не можете скачивать файлы