В подводном царстве / The Blue Realm (2004) HDTVRip [H.264/720p] [1-8 серия]

 
Автор Сообщение

KottoSoft ®

Стаж: 2 года

Сообщений: 119



Награды: Нет

Торрент-статистика

Создавать темы 17-Дек-2014 03:09

[Цитировать]

-В подводном царстве / The Blue Realm (2004) HDTVRip [H.264/720p] [1-8 серия]Страна: США
Режиссер / Телекомпания: Денни Мауро /
Год выпуска: 2004
Жанр: Документальный, природа, океанография
Описание: Данный сериал - это телевизионные истории об удивительных существах в океане. Используя превосходную съёмку высокой четкости, привлечение ведущих ученых, опытных ныряльщиков - эти серии переносят зрителей в чарующий мир дайвинга. Съемки производились в местах: Папуа-Новая Гвинея, Палау (Микронезия), Южная Африка, Красное море, Большой Барьерный риф, Багамские острова, остров Кокос (Коста-Рика), Британская Колумбия, штат Техас, Индонезия, архипелаг Сокорро (Мексика), Калифорния и Флорида.
Продолжительность: 8 х ~00:46:00
Перевод: Одноголосый закадровый (профессиональный)
Субтитры: отсутствуют
Качество видео: HDTVRip [720p]
Формат файла: MKV
Видеокодек: MPEG-4 AVC/H.264
Битрейт видео: ~3 750 Kбит/с
Размер кадра: 1280x720
Аудио #1: AC3, 2 ch, 192 Кбит/с

Содержание (1-8 серия):

1. Акулий бизнес / Shark Business -2. Гиганты Сан-Венедикто. Скаты манты и акулы / Giants of San Benedicto -Щупалца / Tentacles -4. Дайвинг с акулами / Shark Divers -5. Китовые акулы нежные гиганты / Whalesharks Gentle Giants -6. Ламантины и Дюгони / Manatees and Dugongs -7. Чудесный яд / Miracle Venom -8. Горбатые киты / Humpback whales
Скриншоты:

MediaInfo (параметры всех серий идентичны)

Общее
Уникальный идентификатор : 229975259848099310433362127304747879769 (0xAD039FBA98687F749751BE61ABDB8D59)
Полное имя : D:\Релизы\The.Blue.Realm.HDTVRip.720p\01_Shark Business.mkv
Формат : Matroska
Версия формата : Version 4 / Version 2
Размер файла : 1,33 Гбайт
Продолжительность : 47 м.
Режим общего битрейта : Постоянный
Общий поток : 4037 Кбит/сек
Дата кодирования : UTC 2014-08-26 09:07:25
Программа кодирования : mkvmerge v7.1.0 ('Good Love') 64bit built on Jul 27 2014 13:06:55
Библиотека кодирования : libebml v1.3.0 + libmatroska v1.4.1
DURATION : 00:47:02.000000000
NUMBER_OF_FRAMES : 70550
NUMBER_OF_BYTES : 1355777279
_STATISTICS_WRITING_APP : mkvmerge v7.1.0 ('Good Love') 64bit built on Jul 27 2014 13:06:55
_STATISTICS_WRITING_DATE_UTC : 2014-08-26 09:07:25
_STATISTICS_TAGS : BPS DURATION NUMBER_OF_FRAMES NUMBER_OF_BYTES
Видео
Идентификатор : 1
Формат : AVC
Формат/Информация : Advanced Video Codec
Профиль формата : [url=mailto:High@L3.1]High@L3.1[/url]
Параметр CABAC формата : Да
Параметр ReFrames формата : 3 кадра
Идентификатор кодека : V_MPEG4/ISO/AVC
Продолжительность : 47 м.
Вид битрейта : Постоянный
Битрейт : 3765 Кбит/сек
Номинальный битрейт : 4000 Кбит/сек / 4000 Кбит/сек
Ширина : 1280 пикселей
Высота : 720 пикселей
Соотношение сторон : 16:9
Режим частоты кадров : Постоянный
Частота кадров : 25,000 кадров/сек
Стандарт вещания : NTSC
Цветовое пространство : YUV
Субдискретизация насыщенности : 4:2:0
Битовая глубина : 8 бит
Тип развёртки : Прогрессивная
Бит/(Пиксели*Кадры) : 0.163
Размер потока : 1,24 Гбайт (93%)
Библиотека кодирования : x264 core 114
Настройки программы : cabac=1 / ref=3 / deblock=1:0:0 / analyse=0x3:0x113 / me=hex / subme=7 / psy=1 / psy_rd=1.00:0.00 / mixed_ref=1 / me_range=16 / chroma_me=1 / trellis=1 / 8x8dct=1 / cqm=2 / deadzone=21,11 / fast_pskip=1 / chroma_qp_offset=-2 / threads=6 / sliced_threads=0 / slices=1 / nr=0 / decimate=1 / interlaced=0 / constrained_intra=0 / bframes=3 / b_pyramid=0 / b_adapt=1 / b_bias=0 / direct=1 / weightb=1 / open_gop=0 / weightp=2 / keyint=250 / keyint_min=25 / scenecut=40 / intra_refresh=0 / rc_lookahead=40 / rc=cbr / mbtree=1 / bitrate=4000 / ratetol=1.0 / qcomp=0.60 / qpmin=3 / qpmax=69 / qpstep=4 / vbv_maxrate=4000 / vbv_bufsize=3997 / nal_hrd=cbr / ip_ratio=1.40 / aq=1:1.00
Default : Да
Forced : Нет
Основные цвета : BT.709
Характеристики трансфера : BT.709
Коэффициенты матрицы : BT.709
Аудио
Идентификатор : 2
Формат : AC-3
Формат/Информация : Audio Coding 3
Расширение режима : CM (complete main)
Параметр Endianness формата : Big
Идентификатор кодека : A_AC3
Продолжительность : 47 м.
Вид битрейта : Постоянный
Битрейт : 192 Кбит/сек
Каналы : 2 канала
Расположение каналов : Front: L R
Частота : 48,0 КГц
Битовая глубина : 16 бит
Метод сжатия : С потерями
Размер потока : 64,6 Мбайт (5%)
Default : Да
Forced : Нет
Пожалуйста, не уходите с раздачи - помогите докачать другим. Если понравился релиз - жмите кнопку "Спасибо"!
[Профиль] [ЛС]
Кто просматривает тему:

Показать сообщения:    

Текущее время: Сегодня 10:30

Часовой пояс: GMT



Вы не можете начинать темы
Вы не можете отвечать на сообщения
Вы не можете редактировать свои сообщения
Вы не можете удалять свои сообщения
Вы не можете голосовать в опросах
Вы не можете прикреплять файлы к сообщениям
Вы не можете скачивать файлы