В ожидании / Awaiting (2015) WEB-DL 720p | L1

 
Автор Сообщение

Russian Mafia ®

Пол:

Стаж: 1 год 8 месяцев

Сообщений: 4253



Награды: 10 (Подробнее)

Top Releaser 4 (Количество: 1) Mega Seeder 2 (Количество: 1) За внесенный вклад в развитие сайта (Количество: 1)
Торрент-статистика

Создавать темы 21-Мар-2016 10:23

[Цитировать]

Информация о фильме
Название: В ожидании
Оригинальное название: Awaiting
Год выхода: 2015
Жанр: ужасы, триллер, драма
Режиссер: Марк Мерфи
В ролях: Тони Кёрран, Диана Викерс, Руперт Хилл, Питер Вудворд, Адриан Буше, Чарли МакДугалл, Софи Ловелл Андерсон
О фильме: Моррис, человек- отшельник, имеет психологические отклонения, чья жизнь меняется, когда его невинная дочь Лорен влюбляется в одну из его жертв и начинает дружит с ним. Джейк, обычный бизнесмен, вскоре понимает, что он «попал» и его присутствие в доме постепенно раскрывает неожиданные и темные тайны из прошлого.

Выпущено: Великобритания / Green Screen Productions, GSP Studios, Solar Productions
Продолжительность: 01:34:13
Озвучивание: Любительское (одноголосое) [Хихикающий доктор]
Файл
Формат: MKV
Качество: WEB-DL 720p
Видео: MPEG-4 AVC, 3627 kb/s, 1280x530
Аудио: Russian: AC3, 192 kb/s (2 ch) / English: AC3, 384 kb/s (6 ch)

MI

Format : Matroska
Format version : Version 2
File size : 2.82 GiB
Duration : 1h 34mn
Overall bit rate : 4 289 Kbps
Encoded date : UTC 2016-03-21 09:45:26
Writing application : mkvmerge v7.8.0 ('River Man') 32bit built on Apr 3 2015 12:11:22
Writing library : libebml v1.3.1 + libmatroska v1.4.2
Video
ID : 1
Format : AVC
Format/Info : Advanced Video Codec
Format profile : Main@L3.1
Format settings, CABAC : No
Format settings, ReFrames : 2 frames
Codec ID : V_MPEG4/ISO/AVC
Duration : 1h 34mn
Bit rate : 3 627 Kbps
Width : 1 280 pixels
Height : 530 pixels
Display aspect ratio : 2.40:1
Frame rate mode : Constant
Frame rate : 24.000 fps
Color space : YUV
Chroma subsampling : 4:2:0
Bit depth : 8 bits
Scan type : Progressive
Bits/(Pixel*Frame) : 0.223
Stream size : 2.39 GiB (85%)
Language : English
Default : Yes
Forced : No
Color range : Limited
Color primaries : BT.709
Transfer characteristics : BT.709
Matrix coefficients : BT.709
Audio #1
ID : 2
Format : AC-3
Format/Info : Audio Coding 3
Mode extension : CM (complete main)
Format settings, Endianness : Big
Codec ID : A_AC3
Duration : 1h 34mn
Bit rate mode : Constant
Bit rate : 192 Kbps
Channel(s) : 2 channels
Channel positions : Front: L R
Sampling rate : 48.0 KHz
Bit depth : 16 bits
Compression mode : Lossy
Stream size : 129 MiB (4%)
Language : Russian
Default : Yes
Forced : No
Audio #2
ID : 3
Format : AC-3
Format/Info : Audio Coding 3
Mode extension : CM (complete main)
Format settings, Endianness : Big
Codec ID : A_AC3
Duration : 1h 34mn
Bit rate mode : Constant
Bit rate : 384 Kbps
Channel(s) : 6 channels
Channel positions : Front: L C R, Side: L R, LFE
Sampling rate : 48.0 KHz
Bit depth : 16 bits
Compression mode : Lossy
Stream size : 259 MiB (9%)
Language : English
Default : No
Forced : No
Menu
00:00:00.000 : en:Chapter 1
00:08:42.000 : en:Chapter 2
00:17:51.000 : en:Chapter 3
00:27:27.000 : en:Chapter 4
00:33:49.000 : en:Chapter 5
00:41:25.000 : en:Chapter 6
00:49:57.000 : en:Chapter 7
00:57:49.000 : en:Chapter 8
01:04:36.000 : en:Chapter 9
01:12:00.000 : en:Chapter 10
01:21:13.000 : en:Chapter 11
01:30:30.000 : en:Chapter 12

Скриншоты



[Профиль] [ЛС]
Кто просматривает тему:

Показать сообщения:    

Текущее время: Сегодня 01:06

Часовой пояс: GMT



Вы не можете начинать темы
Вы не можете отвечать на сообщения
Вы не можете редактировать свои сообщения
Вы не можете удалять свои сообщения
Вы не можете голосовать в опросах
Вы не можете прикреплять файлы к сообщениям
Вы не можете скачивать файлы