В огне брода нет (Глеб Панфилов) [1967, СССР, Драма, Военный, DVD9] Sub Fre + Original Rus / Potemkine Films

 
Автор Сообщение

TorrentFilm ®

Пол:

Стаж: 2 года

Сообщений: 7741



Награды: Нет

Торрент-статистика

Создавать темы 09-Июл-2015 00:02

[Цитировать]

В огне брода нет / Potemkine Films
Страна:СССР
Студия:Ленфильм.
Жанр:Драма, Военный
Год выпуска:1967
Продолжительность:01:29:35
Производитель:Potemkine FilmsПеревод:Не требуетсяCубтитры:Французские
Оригинальная аудиодорожка:Русский
Премьера (мир):1.06.1968
Режиссер:Глеб ПанфиловВ ролях:Инна Чурикова — Таня Тёткина
Анатолий Солоницын — комиссар Иван Игнатьич Евстрюков
Михаил Глузский — Фокич, санитар
Михаил Кононов — Алёша Семёнов
Майя Булгакова — Мария
Евгений Лебедев — белогвардейский полковник
Анатолий Маренич — Мрозик
Владимир Кашпур — Николай
Вадим Бероев — Вася, художник из агитвагона
Михаил Кокшенов — Зотик
Ф. Разумов — Сягин
Описание:В санитарном поезде, вывозящем раненых с фронтов гражданской войны, работает медсестрой комсомолка Таня Теткина. Совсем юная, застенчивая девушка искренне и самоотверженно предана своему делу. Она далеко не все еще понимает из происходящего вокруг, многое лишь смутно ощущает, пытаясь выразить это своими рисунками и отношением к близким людям, которых она находит и теряет в эти трудные дни.
Доп. информация:Исходник найден в сети.Сценарий:Евгений Габрилович, Глеб ПанфиловДиректор фильма:Николай НееловОператор:Дмитрий Долинин
Композитор:Вадим Биберган
Художник:Марксэн Гаухман-Свердлов, Евгения Словцова, Юрий СмирновМонтаж:Людмила Образумова
Панфилов, Глеб Анатольевич-https://ru.wikipedia.org/wiki/Панфилов,_Глеб_Анатольевич Фильм-https://ru.wikipedia.org/wiki/В_огне_брода_нетЗнаете ли вы, что...">

Это интересноПанфилов, Глеб Анатольевич-https://ru.wikipedia.org/wiki/Панфилов,_Глеб_Анатольевич Фильм-https://ru.wikipedia.org/wiki/В_огне_брода_нетЗнаете ли вы, что...


Награды и номинации

Рецензия

Бонусы:(Без перевода)

Меню:Французский, анимированное , озвученное.Сэмпл :http://multi-up.com/1027772
Тип релиза:DVD9
Контейнер:DVD-Video
Видео:PAL 16:9 (720x576) VBR, Auto Letterboxed, 6686 Кбит/сек, 25,000 кадров/сек
Аудио :Русский:AC3, 2 ch, 48.0 KHz, 256 Кбит/сек
Формат субтитров:prerendered (DVD/IDX+SUB)

Dvd Info

Title: В огне брода нет
Size: 5.09 Gb ( 5 337 122,00 KBytes ) - DVD-9
Enabled regions: 1, 2, 3, 4, 5, 6, 7, 8
VTS_01 :
Play Length: 00:00:28
Video: PAL 16:9 (720x576) VBR, Auto Letterboxed
Audio:
Not specified, AC3, 2/0 (L,R) ch, 256 kbps, Delay 0 mSec
VTS_02 :
Play Length: 01:29:35
Video: PAL 16:9 (720x576) VBR, Auto Letterboxed
Audio:
Russian, AC3, 2/0 (L,R) ch, 256 kbps, Delay 0 mSec
Subtitles:
Francais
VTS_03 :
Play Length: 00:08:26
Video: PAL 16:9 (720x576) VBR, Auto Letterboxed
Audio:
Not specified, AC3, 2/0 (L,R) ch, 256 kbps, Delay 0 mSec
VTS_04 :
Play Length: 00:05:17
Video: PAL 16:9 (720x576) VBR, Auto Letterboxed
Audio:
Not specified, AC3, 2/0 (L,R) ch, 256 kbps, Delay 0 mSec

MediaInfo

Общее
Полное имя: D:\VIDEO_TS\VTS_02_2.VOB
Формат : MPEG-PS
Размер файла : 1024 Мбайт
Продолжительность : 20 м.
Режим общего битрейта : Переменный
Общий поток : 7083 Кбит/сек
Видео
Идентификатор : 224 (0xE0)
Формат : MPEG Video
Версия формата : Version 2
Профиль формата : Main@Main
Параметр BVOP формата : Да
Параметр матрицы формата : Выборочная
Параметр GOP формата : M=3, N=12
Продолжительность : 20 м.
Вид битрейта : Переменный
Битрейт : 6686 Кбит/сек
Максимальный битрейт : 7500 Кбит/сек
Ширина : 720 пикселей
Высота : 576 пикселей
Соотношение сторон : 16:9
Частота кадров : 25,000 кадров/сек
Стандарт вещания : PAL
Цветовое пространство : YUV
Субдискретизация насыщенности : 4:2:0
Битовая глубина : 8 бит
Тип развёртки : Чересстрочная
Порядок развёртки : Верхнее поле первое
Метод сжатия : С потерями
Бит/(Пиксели*Кадры) : 0.645
Временной код первого кадра : 01:19:14:20
Оригинал временного кода : Group of pictures header
Размер потока : 966 Мбайт (94%)
Аудио
Идентификатор : 189 (0xBD)-128 (0x80)
Формат : AC-3
Формат/Информация : Audio Coding 3
Расширение режима : CM (complete main)
Параметр Endianness формата : Big
Режим смешивания : DVD-Video
Продолжительность : 20 м.
Вид битрейта : Постоянный
Битрейт : 256 Кбит/сек
Каналы : 2 канала
Расположение каналов : Front: L R
Частота : 48,0 КГц
Битовая глубина : 16 бит
Метод сжатия : С потерями
Задержка видео : -408 мс.
Размер потока : 37,0 Мбайт (4%)
Текст
Идентификатор : 189 (0xBD)-32 (0x20)
Формат : RLE
Формат/Информация : Run-length encoding
Режим смешивания : DVD-Video

Скриншоты меню

Скриншоты

Скриншоты доп. материалов



[Профиль] [ЛС]

Создавать темы 06-Авг-2015 23:37 (спустя 28 дней)

Топик был перенесен из форума Фильмы (HD DVD, Blu-ray и BDRemux) в форум Фильмы (DVD 5/9)
sergej644
 
Кто просматривает тему:

Показать сообщения:    

Текущее время: Сегодня 10:30

Часовой пояс: GMT



Вы не можете начинать темы
Вы не можете отвечать на сообщения
Вы не можете редактировать свои сообщения
Вы не можете удалять свои сообщения
Вы не можете голосовать в опросах
Вы не можете прикреплять файлы к сообщениям
Вы не можете скачивать файлы