В наше время. Елена Образцова. Роман с оперой [2014, Документальный, Тв-шоу, HDTV 1080i]

 
Автор Сообщение

TorrentFilm ®

Пол:

Стаж: 2 года

Сообщений: 7741



Награды: Нет

Торрент-статистика

Создавать темы 15-Янв-2015 00:15

[Цитировать]

В наше время. Елена Образцова. Роман с оперой
Год выпуска: 2013
Страна: Россия
Жанр: Документальный, Тв-шоу
Продолжительность: 00:41:09
Перевод: Не требуется
Русские субтитры: нет
Описание: Для кого-то - лучшие годы, для кого-то – молодость и детство. Большинство из нас жили в несуществующей уже стране под названием Советский Союз. Создатели программы «В наше время» вместе с ведущими Ангелиной Вовк, Татьяной Веденеевой и Юрием Николаевым приглашают всех вспомнить строительство БАМа, песни Эдуарда Хиля, триумфы советских фигуристов, программу «В гостях у сказки» со знаменитой «тетей Валей», короткометражки «Ералаша», первых красавцев и красавиц театра и кино и многое другое, чем мы жили тогда. В студии соберутся участники и очевидцы событий, а также представители молодого поколения, у которых свой взгляд на «тогда» и «сейчас». «Проблемы «отцов и детей» не возникнет, если мы будем больше узнавать друг о друге, - говорит один из ведущих программы Юрий Николаев. - Эта программа для того, чтобы познакомить нас, сделать нас ближе, чтобы не было недопонимания, которое разделяет поколения». Ангелина Вовк: «В нашей программе мы вспоминаем героев прошлых лет - людей, которые действительно что-то сделали для страны. Например, мы записывали передачу о строителях БАМа. Все-таки героическое было время. Люди жили в невероятно тяжелых условиях, но строили эту дорогу. БАМ был настоящей народной стройкой – это факт. Мне кажется, нужно обращаться к таким знаковым людям любой эпохи - не только советского периода, но и к нынешним. Хотя говорят, что сейчас героев очень мало». Татьяна Веденеева: «Люди, которые не помнят прошлого – не имеют будущего. В Советском Союзе было много хорошего. Конечно, было что-то хуже, чем сейчас, но что-то было и лучше. И забывать про это нельзя, я уже не говорю про то, что были личности, о которых нельзя забывать, и одна из главных целей программы – вспомнить этих людей. Многие из них до сих пор живы. Да, жизнь изменилась. Выросло другое поколение. Но в нашей стране есть масса вещей, которыми можно гордиться. И это правильно - делать программу об этих событиях, но главное о людях».
В этом выпуске: 12 января 2015 годаостановилось сердце народной артистки СССР Елены Образцовой. А в июне 2014 знаменитая певица стала героиней программы "В наше время". Она откровенно рассказала о детстве, пути в искусство, романах, любви к хулиганским анекдотам и многом другом. Вместе с Еленой Образцовой в студию пришли ее друзья - народный артист России режиссер Роман Виктюк, народный артист РСФСР актер Александр Ширвиндт, народная артистка России певица Маквала Касрашвили, народный артист России режиссер Дмитрий Бергман, генеральный директор Большого театра Владимир Урин.
Доп. информация: Релиз -

Рип чистый. Без посторонних надписей. Выкладывается как есть.
Качество: HDTV 1080i
Контейнер: TS
Видео кодек: AVC
Аудио кодек: MP2
Видео: 1920x1080 (16:9) 25.000 fps ~ 13.5 Mbps, 0.260 bit/pixel
Аудио 1: MPEG Audio 48000Hz stereo 192 Кбит/сек 2 channels
Аудио 2: AC3, 6 channels, 48000Hz, 384 Кбит/сек

Скриншоты

Скринлист

MI

GeneralID : 1 (0x1)Complete name : H:\ВЫКЛАДКА\В наше время. Елена Образцова (2014, Тв-шоу, HDTV 1080i) (MYDIMKA).tsFormat : MPEG-TSFile size : 4.25 GiBDuration : 41mn 9sOverall bit rate mode : VariableOverall bit rate : 14.8 Mbps
VideoID : 1603 (0x643)Menu ID : 603 (0x25B)Format : AVCFormat/Info : Advanced Video CodecFormat profile : High@L4.0Format settings, CABAC : YesFormat settings, ReFrames : 3 framesCodec ID : 27Duration : 41mn 9sBit rate : 13.5 MbpsWidth : 1 920 pixelsHeight : 1 080 pixelsDisplay aspect ratio : 16:9Frame rate : 25.000 fpsStandard : ComponentColor space : YUVChroma subsampling : 4:2:0Bit depth : 8 bitsScan type : InterlacedScan order : Top Field FirstBits/(Pixel*Frame) : 0.260Stream size : 3.88 GiB (91%)Color primaries : BT.709Transfer characteristics : BT.709Matrix coefficients : BT.709
Audio #1ID : 2603 (0xA2B)Menu ID : 603 (0x25B)Format : AC-3Format/Info : Audio Coding 3Mode extension : CM (complete main)Format settings, Endianness : BigCodec ID : 6Duration : 41mn 9sBit rate mode : ConstantBit rate : 384 KbpsChannel(s) : 6 channelsChannel positions : Front: L C R, Side: L R, LFESampling rate : 48.0 KHzBit depth : 16 bitsCompression mode : LossyDelay relative to video : -40msStream size : 113 MiB (3%)Language : Russian
Audio #2ID : 2604 (0xA2C)Menu ID : 603 (0x25B)Format : MPEG AudioFormat version : Version 1Format profile : Layer 2Codec ID : 3Duration : 41mn 9sBit rate mode : ConstantBit rate : 192 KbpsChannel(s) : 2 channelsSampling rate : 48.0 KHzCompression mode : LossyDelay relative to video : -40msStream size : 56.5 MiB (1%)Language : Russian
[Профиль] [ЛС]
Кто просматривает тему:

Показать сообщения:    

Текущее время: Сегодня 22:21

Часовой пояс: GMT



Вы не можете начинать темы
Вы не можете отвечать на сообщения
Вы не можете редактировать свои сообщения
Вы не можете удалять свои сообщения
Вы не можете голосовать в опросах
Вы не можете прикреплять файлы к сообщениям
Вы не можете скачивать файлы