В ловушке времени / Timeline (2003) BDRip-AVC от Rulya74

 
Автор Сообщение

Russian Mafia ®

Пол:

Стаж: 1 год 8 месяцев

Сообщений: 4253



Награды: 10 (Подробнее)

Mega Seeder 2 (Количество: 1) Top Releaser 4 (Количество: 1) Top Releaser 5 (Количество: 1)
Торрент-статистика

Создавать темы 27-Сен-2016 06:12

[Цитировать]

В ловушке времени / Timeline (2003) BDRip-AVC
Информация о фильме
Название: В ловушке времени
Оригинальное название: Timeline
Год выхода: 2003
Жанр: фантастика, фэнтези, боевик, приключения
Режиссер: Ричард Доннер
В ролях: Пол Уокер, Фрэнсис О’Коннор, Джерард Батлер, Билли Коннолли, Дэвид Тьюлис, Анна Фрил, Нил МакДонаф, Мэтт Крэвен, Итэн Эмбри, Майкл Шин, Ламбер Вильсон, Мартон Чокаш, Россиф Сазерленд, Стив Кэхэн, Давид Ла Эй, Ричард Биман, Патрик Сабонгуй, Майк Шуте, Джэйсон Мэрилл, Власта Врана, Марк Оливье, Джерри Мосс, Дэнни Бланко, Пол Туэрпе, Кэс Анвар, Стефани Биддл, Луис Деллар, Линн Эдамс, Кристиан Тессьер, Милли Трессьера, Эми Слоун, Райан Вулфф, Кристиан Пол, Мэриэн Колье
О фильме: В ближайшем будущем человечество совершает огромный технологический скачок. Информация передается мгновенно без всяких проводов. Компьютеры встраиваются в молекулы.
Каждый момент из прошлого можно фактически воспроизвести — и группа ученых получает возможность войти в буквальном смысле слова в жизнь, скажем, Франции ХІV века. Однако такое путешествие таит в себе немало опасного…

Страна: США
Продолжительность: 01:51:11
Перевод: Дублированный (Премьер-Видео), Авторский одноголосый (Ю. Живов), Многоголосый закадровый (Украинский), Оригинал (Английский)
Файл
Кодек: x.264
Качество: BDRip-AVC
Видео: 1024x436 (2,35:1), 25 fps, 2132 kbps, 0.191 bit/pixel
Аудио #1: 48 kHz, AC3, 2/0 (L,R) ch, ~448.00 kbps (Дублированный)
Аудио #2: 48 kHz, AC3 Dolby Digital, 3/2 (L,C,R,l,r) + LFE ch, ~384 kbps (Ю. Живов)
Аудио #3: 48 kHz, AC3 Dolby Digital, 3/2 (L,C,R,l,r) + LFE ch, ~384 kbps (Украинский)
Аудио #4: 48 kHz, AC3 Dolby Digital, 3/2 (L,C,R,l,r) + LFE ch, ~384 kbps (Оригинал)
Субтитры: Английские (отключаемые)
Семпл

MediaInfo

Общее
Уникальный идентификатор : 188192618716042141517328058584711134852 (0x8D949478E6661E83895AE66BE44D7E84)
Полное имя : D:Timeline.2003.BDRip-AVC.mkv
Формат : Matroska
Версия формата : Version 4 / Version 2
Размер файла : 2,90 Гбайт
Продолжительность : 1 ч. 51 м.
Общий поток : 3734 Кбит/сек
Название фильма : В ловушке времени / Timeline (2003) BDRip-AVC rip by Rulya74
Дата кодирования : UTC 2013-02-18 09:53:12
Программа кодирования : mkvmerge v6.0.0 ('Coming Up For Air') built on Jan 20 2013 09:52:00
Библиотека кодирования : libebml v1.3.0 + libmatroska v1.4.0
Видео
Идентификатор : 1
Формат : AVC
Формат/Информация : Advanced Video Codec
Профиль формата : High@L4.1
Параметр CABAC формата : Да
Параметр ReFrames формата : 12 кадров
Идентификатор кодека : V_MPEG4/ISO/AVC
Продолжительность : 1 ч. 51 м.
Битрейт : 2132 Кбит/сек
Ширина : 1024 пикселя
Высота : 436 пикселей
Соотношение сторон : 2,35:1
Режим частоты кадров : Постоянный
Частота кадров : 25,000 кадров/сек
Цветовое пространство : YUV
Субдискретизация насыщенности : 4:2:0
Битовая глубина : 8 бит
Тип развёртки : Прогрессивная
Бит/(Пиксели*Кадры) : 0.191
Размер потока : 1,60 Гбайт (55%)
Библиотека кодирования : x264 core 129 r2245 bc13772
Настройки программы : cabac=1 / ref=12 / deblock=1:-3:-3 / analyse=0x3:0x133 / me=umh / subme=10 / psy=1 / psy_rd=1.10:0.20 / mixed_ref=1 / me_range=32 / chroma_me=1 / trellis=2 / 8x8dct=1 / cqm=0 / deadzone=21,11 / fast_pskip=0 / chroma_qp_offset=-3 / threads=14 / lookahead_threads=2 / sliced_threads=0 / nr=0 / decimate=1 / interlaced=0 / bluray_compat=0 / constrained_intra=0 / bframes=9 / b_pyramid=2 / b_adapt=2 / b_bias=0 / direct=3 / weightb=1 / open_gop=0 / weightp=2 / keyint=250 / keyint_min=23 / scenecut=40 / intra_refresh=0 / rc_lookahead=40 / rc=2pass / mbtree=1 / bitrate=2132 / ratetol=1.0 / qcomp=0.60 / qpmin=10 / qpmax=69 / qpstep=4 / cplxblur=20.0 / qblur=0.5 / ip_ratio=1.40 / aq=1:1.00
Язык : English
Default : Да
Forced : Нет
Аудио #1
Идентификатор : 2
Формат : AC-3
Формат/Информация : Audio Coding 3
Расширение режима : CM (complete main)
Параметр Endianness формата : Big
Идентификатор кодека : A_AC3
Продолжительность : 1 ч. 51 м.
Вид битрейта : Постоянный
Битрейт : 448 Кбит/сек
Каналы : 2 канала
Расположение каналов : Front: L R
Частота : 48,0 КГц
Битовая глубина : 16 бит
Метод сжатия : С потерями
Размер потока : 356 Мбайт (12%)
Заголовок : |Дублированный, Премьер-Видео|
Язык : Russian
Default : Да
Forced : Нет
Аудио #2
Идентификатор : 3
Формат : AC-3
Формат/Информация : Audio Coding 3
Расширение режима : CM (complete main)
Параметр Endianness формата : Big
Идентификатор кодека : A_AC3
Продолжительность : 1 ч. 51 м.
Вид битрейта : Постоянный
Битрейт : 384 Кбит/сек
Каналы : 6 каналов
Расположение каналов : Front: L C R, Side: L R, LFE
Частота : 48,0 КГц
Битовая глубина : 16 бит
Метод сжатия : С потерями
Размер потока : 305 Мбайт (10%)
Заголовок : |Одноголосый закадровый, Ю.Живов|
Язык : Russian
Default : Нет
Forced : Нет
Аудио #3
Идентификатор : 4
Формат : AC-3
Формат/Информация : Audio Coding 3
Расширение режима : CM (complete main)
Параметр Endianness формата : Big
Идентификатор кодека : A_AC3
Продолжительность : 1 ч. 51 м.
Вид битрейта : Постоянный
Битрейт : 384 Кбит/сек
Каналы : 6 каналов
Расположение каналов : Front: L C R, Side: L R, LFE
Частота : 48,0 КГц
Битовая глубина : 16 бит
Метод сжатия : С потерями
Размер потока : 305 Мбайт (10%)
Заголовок : Многоголосый закадровый
Язык : Ukrainian
Default : Нет
Forced : Нет
Аудио #4
Идентификатор : 5
Формат : AC-3
Формат/Информация : Audio Coding 3
Расширение режима : CM (complete main)
Параметр Endianness формата : Big
Идентификатор кодека : A_AC3
Продолжительность : 1 ч. 51 м.
Вид битрейта : Постоянный
Битрейт : 384 Кбит/сек
Каналы : 6 каналов
Расположение каналов : Front: L C R, Side: L R, LFE
Частота : 48,0 КГц
Битовая глубина : 16 бит
Метод сжатия : С потерями
Размер потока : 305 Мбайт (10%)
Заголовок : Оригинал
Default : Нет
Forced : Нет
Текст
Идентификатор : 6
Формат : UTF-8
Идентификатор кодека : S_TEXT/UTF8
Идентификатор кодека/Информация : UTF-8 Plain Text
Язык : English
Default : Да
Forced : Нет

Скриншоты


[Профиль] [ЛС]
Кто просматривает тему:

Показать сообщения:    

Текущее время: Сегодня 03:12

Часовой пояс: GMT



Вы не можете начинать темы
Вы не можете отвечать на сообщения
Вы не можете редактировать свои сообщения
Вы не можете удалять свои сообщения
Вы не можете голосовать в опросах
Вы не можете прикреплять файлы к сообщениям
Вы не можете скачивать файлы