В конце туннеля / Al final del túnel (Родриго Гранде / Rodrigo Grande) [2016, Аргентина, Испания, Триллер, криминал, HDRip] MVO (@MUZOBOZ@)

 
Author Message

Один 777 ®

Gender:

Longevity: 5 years

Posts: 506

Location: Луцк



: 7 ()

За внесенный вклад в развитие сайта (1) Mega Seeder 3 (1) Mega Seeder 1 (1)
Торрент-статистика

Post 18-Dec-2016 10:07

[Quote]

В конце туннеля / Al final del túnel
Год выпуска: 2016
Страна: Аргентина, Испания
Жанр: Триллер, криминал
Продолжительность: 02:00:23
Перевод: Любительский (многоголосый закадровый) @MUZOBOZ@
Cубтитры: нет
Режиссер: Родриго Гранде / Rodrigo Grande
В ролях: Леонардо Сбараглиа, Пабло Эчарри, Клара Лаго, Дэниел Моралес Комини, Уолтер Донато, Лора Фаэнца, Серджо Феррейро, Факундо Науэль Хименес, Хавьер Годино, Федерико Луппи...
Описание: Группа грабителей пытается сорвать большой куш, построив подземный туннель, ведущий прямиком к банку. Происходящее привлекает нежелательное внимание Хоакина, парализованного человека, сидящего в инвалидном кресле в соседнем доме. Но он, случайно услышав звук работ под своим подвалом, совсем не торопится разоблачить гангстеров, так как считает, что появился его собственный шанс..
Доп. информация: БЕЗ РЕКЛАМЫ

Сэмпл: http://sendfile.su/1291473

Качество видео: HDRip
Формат видео: AVI
Видео кодек: XviD
Аудио кодек: МР3
Видео: 640x272 (2.35:1), 23.976 fps, XviD build 73 ~731 kbps avg, 0.17 bit/pixel
Аудио: 48 kHz, MPEG Layer 3, 2 ch, ~128.00 kbps avg

MediaInfo

Общее
Полное имя : F:\V.konce.tunnelja.2016.HDRip.740.[Один 777].avi
Формат : AVI
Формат/Информация : Audio Video Interleave
Размер файла : 748 Мбайт
Продолжительность : 2 ч. 0 м.
Общий поток : 869 Кбит/сек
Программа кодирования : VirtualDubMod 1.5.10.3 | www.virtualdub-fr.org || (build 2550/release)
Библиотека кодирования : VirtualDubMod build 2550/release
Видео
Идентификатор : 0
Формат : MPEG-4 Visual
Профиль формата : Advanced Simple@L5
Параметр BVOP формата : 1
Параметр QPel формата : Нет
Параметр GMC формата : Без точки перехода
Параметр матрицы формата : Default (H.263)
Идентификатор кодека : XVID
Идентификатор кодека/Подсказка : XviD
Продолжительность : 2 ч. 0 м.
Битрейт : 732 Кбит/сек
Ширина : 640 пикселей
Высота : 272 пикселя
Соотношение сторон : 2,35:1
Частота кадров : 23,976 (23976/1000) кадра/сек
Цветовое пространство : YUV
Субдискретизация насыщенности : 4:2:0
Битовая глубина : 8 бит
Тип развёртки : Прогрессивная
Метод сжатия : С потерями
Бит/(Пиксели*Кадры) : 0.175
Размер потока : 630 Мбайт (84%)
Библиотека кодирования : XviD 73
Аудио
Идентификатор : 1
Формат : MPEG Audio
Версия формата : Version 1
Профиль формата : Layer 3
Идентификатор кодека : 55
Идентификатор кодека/Подсказка : MP3
Продолжительность : 2 ч. 0 м.
Вид битрейта : Постоянный
Битрейт : 128 Кбит/сек
Каналы : 2 канала
Частота : 48,0 КГц
Метод сжатия : С потерями
Размер потока : 110 Мбайт (15%)
Выравнивание : Соединение по промежуткам
Продолжительность промежутка : 42 мс. (1,00 видеокадр)
Время предзагрузки промежутка : 504 мс.
Библиотека кодирования : LAME3.99r
Настройки программы : -m s -V 4 -q 2 -lowpass 17 -b 128

Скриншот c названием фильма

Скриншоты

[Profile] [PM]
Кто просматривает тему:

Display posts from previous:    

The time now is: Today 13:35

All times are GMT



You cannot post new topics in this forum
You cannot reply to topics in this forum
You cannot edit your posts in this forum
You cannot delete your posts in this forum
You cannot vote in polls in this forum
You cannot attach files in this forum
You cannot download files in this forum