В компании мужчин / The Company Men (Джон Уэллс / John Wells) [2010, США, Великобритания, драма, BDRip-AVC] MVO (R5) + Original (eng) + Subs (ukr, eng)

 
Автор Сообщение

reversefile ®

Пол:

Стаж: 4 года 5 месяцев

Сообщений: 842

Откуда: ReverseFile.org



Награды: Нет

Торрент-статистика

Создавать темы 13-Авг-2014 10:03

[Цитировать]

В компании мужчин / The Company Men
«Большой бизнес просто сократил неправильных парней»

-
Страна: США, Великобритания
Жанр: драма
Год выпуска: 2010
Продолжительность: 01:44:36-Перевод: профессиональный (многоголосый закадровый) [R5]
Cубтитры: украинские, английские-Режиссер: Джон Уэллс / John Wells
В ролях: Бен Аффлек, Томас Ретт Ки, Крэйг Мэтерс, Гари Галоун, Томми Ли Джонс, Крис Купер, Кевин Костнер, Сюзанн Рико, Эдриан Крштански, Льюис Д. Вилер, Селеста Олива
Описание: Этот фильм рассказывает о влиянии экономического кризиса на судьбы людей и компаний.
Аффлек сыграет энергичного карьериста, который получает крупный пост в солидной корпорации, но совсем скоро теряет и шестизначную зарплату, и новенький «Порше», когда оказывается на улице.
Ему помогает родственник в исполнении Кевина Костнера, который нанимает уволенного бизнесмена к себе на работу в строительную фирму...
-Качество видео: BDRip-AVC
Формат видео: MKV-Видео: х.264, 1024x576 (16:9), 23.976 fps, ~2082 Кbps, 0.147 bit/pixel
Аудио 1: AC3 448 Кбит/сек (6 ch), 48,0 КГц, 16 бит | MVO
Аудио 2: AC3 448 Кбит/сек (6 ch), 48,0 КГц, 16 бит | ENG
Формат субтитров: SoftSub (SRT)
-- -
-

MediaInfo & log x264log x264

x264 [info]: using SAR=1/1
x264 [info]: using cpu capabilities: MMX2 SSE2Slow SlowCTZ
x264 [info]: profile High, level 4.1
x264 [info]: frame I:1229 Avg QP:17.24 size:103931
x264 [info]: frame P:30368 Avg QP:20.14 size: 23708
x264 [info]: frame B:118886 Avg QP:22.08 size: 6608
x264 [info]: consecutive B-frames: 1.6% 2.8% 5.6% 14.5% 18.0% 41.5% 8.2% 2.3% 2.7% 0.8% 0.8% 0.5% 0.4% 0.3%
x264 [info]: mb I I16..4: 3.8% 74.2% 22.0%
x264 [info]: mb P I16..4: 0.5% 5.0% 1.0% P16..4: 42.9% 21.9% 19.1% 0.7% 0.3% skip: 8.6%
x264 [info]: mb B I16..4: 0.0% 0.2% 0.1% B16..8: 38.7% 8.9% 2.7% direct: 3.9% skip:45.5% L0:43.7% L1:44.7% BI:11.6%
x264 [info]: 8x8 transform intra:76.0% inter:56.3%
x264 [info]: direct mvs spatial:98.3% temporal:1.7%
x264 [info]: coded y,uvDC,uvAC intra: 86.8% 79.0% 58.0% inter: 19.2% 9.2% 0.9%
x264 [info]: i16 v,h,dc,p: 42% 16% 12% 30%
x264 [info]: i8 v,h,dc,ddl,ddr,vr,hd,vl,hu: 14% 10% 10% 9% 12% 12% 12% 11% 11%
x264 [info]: i4 v,h,dc,ddl,ddr,vr,hd,vl,hu: 14% 9% 4% 9% 14% 14% 13% 11% 12%
x264 [info]: i8c dc,h,v,p: 41% 22% 22% 14%
x264 [info]: Weighted P-Frames: Y:1.1% UV:0.3%
x264 [info]: ref P L0: 44.6% 11.5% 19.1% 6.3% 5.9% 4.0% 4.0% 2.1% 2.3% 0.2% 0.0%
x264 [info]: ref B L0: 67.7% 13.9% 7.1% 3.9% 3.0% 2.6% 1.4% 0.5%
x264 [info]: ref B L1: 90.3% 9.7%
x264 [info]: kb/s:2081.86
General
Unique ID                                : 228798398309668178326150835887787426268 (0xAC20F7F9A8AEEF7CAEA237FC6F8B41DC)
Complete name                            : D:\ФИЛЬМЫ\The_Company_Men_(2010)_BDRip-AVC_R.G.All_Films.mkv
Format                                   : Matroska
Format version                           : Version 4 / Version 2
File size                                : 2.18 GiB
Duration                                 : 1h 44mn
Overall bit rate                         : 2 979 Kbps
Movie name                               : В компании мужчин / The Company Men (2010) BDRip-AVC by andre90
Encoded date                             : UTC 2014-07-24 14:42:20
Writing application                      : mkvmerge v7.0.0 ('Where We Going') 32bit built on Jun  9 2014 15:08:34
Writing library                          : libebml v1.3.0 + libmatroska v1.4.1
Cover                                    : Yes
DURATION                                 : 01:39:12.077000000
NUMBER_OF_FRAMES                         : 1272
NUMBER_OF_BYTES                          : 63979
_STATISTICS_WRITING_APP                  : mkvmerge v7.0.0 ('Where We Going') 32bit built on Jun  9 2014 15:08:34
_STATISTICS_WRITING_DATE_UTC             : 2014-07-24 14:42:20
_STATISTICS_TAGS                         : BPS DURATION NUMBER_OF_FRAMES NUMBER_OF_BYTES
Video
ID                                       : 1
Format                                   : AVC
Format/Info                              : Advanced Video Codec
Format profile                           : High@L4.1
Format settings, CABAC                   : Yes
Format settings, ReFrames                : 9 frames
Codec ID                                 : V_MPEG4/ISO/AVC
Duration                                 : 1h 44mn
Bit rate                                 : 2 083 Kbps
Width                                    : 1 024 pixels
Height                                   : 576 pixels
Display aspect ratio                     : 16:9
Frame rate mode                          : Constant
Frame rate                               : 23.976 fps
Color space                              : YUV
Chroma subsampling                       : 4:2:0
Bit depth                                : 8 bits
Scan type                                : Progressive
Bits/(Pixel*Frame)                       : 0.147
Stream size                              : 1.48 GiB (68%)
Writing library                          : x264 core 142 r2431 ac76440
Encoding settings                        : cabac=1 / ref=9 / deblock=1:-3:-2 / analyse=0x3:0x133 / me=umh / subme=10 / psy=1 / psy_rd=1.00:0.00 / mixed_ref=1 / me_range=48 / chroma_me=1 / trellis=2 / 8x8dct=1 / cqm=0 / deadzone=21,11 / fast_pskip=0 / chroma_qp_offset=-2 / threads=3 / lookahead_threads=1 / sliced_threads=0 / nr=0 / decimate=1 / interlaced=0 / bluray_compat=0 / constrained_intra=0 / bframes=13 / b_pyramid=2 / b_adapt=2 / b_bias=0 / direct=3 / weightb=1 / open_gop=0 / weightp=2 / keyint=240 / keyint_min=23 / scenecut=40 / intra_refresh=0 / rc_lookahead=40 / rc=2pass / mbtree=0 / bitrate=2083 / ratetol=1.0 / qcomp=0.60 / qpmin=0 / qpmax=69 / qpstep=4 / cplxblur=20.0 / qblur=0.5 / vbv_maxrate=50000 / vbv_bufsize=62500 / nal_hrd=none / filler=0 / ip_ratio=1.40 / pb_ratio=1.30 / aq=2:1.00
Language                                 : English
Default                                  : Yes
Forced                                   : No
DURATION                                 : 01:44:36.395000000
NUMBER_OF_FRAMES                         : 150483
NUMBER_OF_BYTES                          : 1633323851
_STATISTICS_WRITING_APP                  : mkvmerge v7.0.0 ('Where We Going') 32bit built on Jun  9 2014 15:08:34
_STATISTICS_WRITING_DATE_UTC             : 2014-07-24 14:42:20
_STATISTICS_TAGS                         : BPS DURATION NUMBER_OF_FRAMES NUMBER_OF_BYTES
Audio #1
ID                                       : 2
Format                                   : AC-3
Format/Info                              : Audio Coding 3
Mode extension                           : CM (complete main)
Format settings, Endianness              : Big
Codec ID                                 : A_AC3
Duration                                 : 1h 44mn
Bit rate mode                            : Constant
Bit rate                                 : 448 Kbps
Channel(s)                               : 6 channels
Channel positions                        : Front: L C R, Side: L R, LFE
Sampling rate                            : 48.0 KHz
Bit depth                                : 16 bits
Compression mode                         : Lossy
Stream size                              : 335 MiB (15%)
Language                                 : Russian
Default                                  : Yes
Forced                                   : No
Audio #2
ID                                       : 3
Format                                   : AC-3
Format/Info                              : Audio Coding 3
Mode extension                           : CM (complete main)
Format settings, Endianness              : Big
Codec ID                                 : A_AC3
Duration                                 : 1h 44mn
Bit rate mode                            : Constant
Bit rate                                 : 448 Kbps
Channel(s)                               : 6 channels
Channel positions                        : Front: L C R, Side: L R, LFE
Sampling rate                            : 48.0 KHz
Bit depth                                : 16 bits
Compression mode                         : Lossy
Stream size                              : 335 MiB (15%)
Language                                 : English
Default                                  : No
Forced                                   : No
Text #1
ID                                       : 4
Format                                   : UTF-8
Codec ID                                 : S_TEXT/UTF8
Codec ID/Info                            : UTF-8 Plain Text
Language                                 : English
Default                                  : No
Forced                                   : No
Text #2
ID                                       : 5
Format                                   : UTF-8
Codec ID                                 : S_TEXT/UTF8
Codec ID/Info                            : UTF-8 Plain Text
Language                                 : Ukrainian
Default                                  : No
Forced                                   : No
Menu
00:00:00.000                             : en:Scene 1
00:04:12.043                             : en:Scene 2
00:07:40.209                             : en:Scene 3
00:12:21.030                             : en:Scene 4
00:18:32.611                             : en:Scene 5
00:23:52.431                             : en:Scene 6
00:35:22.619                             : en:Scene 7
00:43:23.349                             : en:Scene 8
00:51:30.585                             : en:Scene 9
00:57:06.380                             : en:Scene 10
01:05:11.488                             : en:Scene 11
01:12:55.496                             : en:Scene 12
01:21:42.439                             : en:Scene 13
01:27:58.981                             : en:Scene 14
01:36:57.770                             : en:Scene 15
01:40:11.380                             : en:Scene 16
[Профиль] [ЛС]

Создавать темы 06-Авг-2015 23:19 (спустя 11 месяцев 24 дня)

Топик был перенесен из форума Фильмы до 2014 года в форум Фильмы до 2012 года
sergej644
 

Создавать темы 12-Июн-2016 07:54 (спустя 1 год 9 месяцев)

Топик был перенесен из форума Фильмы 2011 года в форум Фильмы 2010 года
Russian Mafia
 
Кто просматривает тему:

Показать сообщения:    

Текущее время: Сегодня 08:59

Часовой пояс: GMT



Вы не можете начинать темы
Вы не можете отвечать на сообщения
Вы не можете редактировать свои сообщения
Вы не можете удалять свои сообщения
Вы не можете голосовать в опросах
Вы не можете прикреплять файлы к сообщениям
Вы не можете скачивать файлы